記憶の欠片
Sana

ADVANCED

Level: 6
BPM: 153
Notes: 376

1
口口口口 |----|
口口口口 |----|
口口口口 |----|
口口口口 |----|
2
口口口口 |①-②-|
口口口⑥ |③-④-|
③口④⑤ |--⑤-|
①②口口 |--⑥-|
3
③口口口 |--①-|
②①口口 |②-③-|
口口口口
口口口口

口口口口
口⑤⑤口
④口口④ |----|
口口口口 |④-⑤-|
4
口口口口 |①---|
①口口① |②---|
③口④口 |③---|
口②口口 |④---|
5
口④口口 |①---|
②口③口 |②---|
口①口口 |③---|
口口口口 |④---|
6
口口口口 |①---|
口口④口 |②---|
口②口③ |③---|
口口①口 |④---|
7
口①口口 |①---|
口③⑤④ |②---|
口口②口 |③-④-|
口口口口 |⑤---|
8
口①口口 |①---|
②④③口 |②---|
口口口口 |③---|
口口口口 |④---|
9
口口④口 |①---|
口口口口 |②---|
①口②口 |③---|
口③口口 |④---|
10
口口口口 |①---|
口①口② |②---|
口口口口
口口口口

口⑤⑤口
口④③口
口口口口 |③---|
口口口口 |④-⑤-|
11
口口口口 |----|
口口口口 |----|
口口口口 |----|
口口口口 |----|
12
口⑥口口 |①---|
口口口口 |--②-|
②④③⑤ |③-④-|
口①①口 |⑤-⑥-|
13
口口③口 |①---|
②口①口 |②---|
口④口口 |----|
口口口口 |③-④-|
14
口口口口 |----|
口口口口 |----|
口③④② |①-②-|
口①口口 |③-④-|
15
口⑤口口 |①-②-|
④口②③ |③-④⑤|
①口口口 |----|
口⑥口口 |--⑥-|
16
口口②口 |①---|
口口口口 |--②-|
口口①口
口口口口

口口口口
口③⑤口
口口④口 |③---|
口口口口 |--④⑤|
17
口①③口 |①---|
口口④口 |--②-|
口②口口 |③-④-|
口口口口 |----|
18
口口口口 |----|
①③口口 |①---|
口口口② |②---|
口②口口 |③---|
19
口口口④ |①--②|
③④口口 |--③-|
①②口③ |④---|
口口①口 |----|
20
口⑤口口 |----|
口口口口 |--①-|
①③②口 |②-③④|
口口④口 |--⑤-|
21
口口口口 |①---|
②口①口 |②---|
口口口口
口口口口

口④口口
口口③口
口口口口 |----|
口口口口 |--③④|
22
口⑥口口 |①-②-|
口⑤口口 |③---|
口④③① |--④-|
口②口口 |⑤-⑥-|
23
口口⑤⑤ |①-②-|
口口口① |③-④⑤|
④④③口
口②口口

口口口口
口口口口
口口口口 |----|
口⑥口口 |--⑥-|
24
①口口口 |①---|
口①口口 |--②-|
口口口②
口口口口

④口③口
口口口③
口口口口 |③---|
口口口口 |--④-|
25
口口②口 |①---|
口③口口 |--②-|
①口④口 |③-④-|
口①口④ |----|
26
口①口口 |----|
口口②⑥ |--①②|
口③⑤口 |③-④-|
口口④口 |⑤-⑥-|
27
③口口③ |①---|
口②②口 |--②-|
①口口① |③---|
口口口口 |----|
28
④口口口 |----|
③口口口 |①---|
②口口口 |②-③-|
口口⑤① |④-⑤-|
29
口口④④ |----|
口①②② |①---|
口③口口 |②-③-|
口口口口 |④---|
30
口口口③ |----|
口口口② |----|
口口口① |①-②-|
口④口口 |③-④-|
31
②口口口 |--①-|
③口①口 |②---|
④②口口 |③---|
口口口口 |④---|
32
口口②口 |----|
口③①⑤ |①-②-|
口口④口 |--③-|
口①口口 |④-⑤-|
33
口口口口 |--①-|
口口口口 |②---|
①口口口 |----|
②口④③ |③-④-|
34
口口口口 |--①-|
①②③口 |②-③-|
口⑥⑤④ |--④-|
口口口口 |⑤-⑥-|
35
①②③口 |--①-|
口⑥⑦口 |②-③-|
口④口口 |--④-|
口口⑤口 |⑤-⑥⑦|
36
口口口口 |----|
口口口口 |----|
口①①口 |----|
口口口口 |--①-|
37
口②②口 |①-②-|
①口口① |----|
④④⑥⑥ |③-④-|
③③⑤⑤ |⑤-⑥-|
38
②口口④ |①-②-|
①⑦口③ |③-④-|
④⑥口口 |--⑤-|
口⑤口口 |⑥-⑦-|
39
②口口④ |①---|
①口口③ |②---|
口口⑤② |③-④-|
口⑤口① |--⑤-|
40
口口口口 |①---|
④③①口 |----|
口口②口 |--②-|
口口口口 |③-④-|
41
口口①口 |①---|
口口③口 |--②-|
口④口② |③-④-|
口③⑤口 |⑤---|
42
口口口④ |①-②-|
口⑤口③ |③-④-|
①口⑥口 |----|
②口口口 |⑤-⑥-|
43
⑤口口⑤ |①---|
口④①口 |②---|
口②④口 |③-④-|
③口口③ |--⑤-|
44
口②口口 |----|
①口③口 |----|
口口口口 |--①-|
口口口口 |②-③-|
45
口口口口 |----|
口口口口 |--①-|
口③口① |②-③-|
口口②口 |----|
46
④④②② |①-②-|
③口⑦① |③-④-|
口口⑥口 |--⑤-|
口口⑤口 |⑥-⑦-|
47
④口②② |①---|
③口口口 |②---|
口⑤口口 |③-④-|
①①⑤口 |--⑤-|
48
口口口口 |①---|
口①③④ |----|
口口口口 |--②-|
口②口口 |③-④-|
49
口口口① |①---|
口③口口 |--②-|
②口④口 |③-④-|
口口口口 |----|
50
④口口口 |①-②-|
③口⑤口 |③-④-|
口⑥口① |----|
口口口② |⑤-⑥-|
51
⑤口口⑤ |①---|
口①④口 |②---|
口④②口 |③-④-|
③口口③ |--⑤-|
52
口②口口 |----|
①口③口 |----|
口口口口 |--①-|
口口口口 |②-③-|
53
口口口口 |----|
口口口口 |----|
口③口① |--①-|
口口②口 |②-③-|
54
③④⑤口 |①---|
②口⑦口 |--②-|
口⑥口口 |③-④-|
①口口口 |⑤-⑥⑦|
55
口口口口 |----|
①口口口 |①---|
口口⑤④ |②-③-|
②③口口 |④-⑤-|
56
口①①⑤ |----|
⑤口口④ |①-②-|
②口口口 |--③-|
口③③② |④-⑤-|
57
口口③④ |①-②-|
口①口口 |----|
口②口① |③-④-|
④③口口 |----|
58
③口口② |----|
口④口口 |①---|
①口口口 |②---|
口口口口 |③-④-|
59
口口①口 |①---|
口口⑤③ |--②-|
②④口口 |--③-|
口口口口 |④-⑤-|
60
①⑤②口 |①-②-|
口①口口 |③-④-|
③口④⑥ |--⑤-|
口口口④ |--⑥-|
61
口口口④ |①-②-|
口③④口 |③-④-|
口①口口
①口②口

口口口口
⑤口口口
口⑥口口 |----|
口口口口 |⑤-⑥-|
62
口口口口 |①---|
口口口① |----|
口口口口 |----|
口口口口 |----|
63
口④口口 |①---|
②口③口 |②---|
口①口口 |③---|
口口口口 |④---|
64
口口口口 |①---|
口口④口 |②---|
口②口③ |③---|
口口①口 |④---|
65
口①口口 |①---|
口③⑤④ |②---|
口口②口 |③-④-|
口口口口 |⑤---|
66
口①口口 |①---|
②④③口 |②---|
口口口口 |③---|
口口口口 |④---|
67
口口④口 |①---|
口口口口 |②---|
①口②口 |③---|
口③口口 |④---|
68
口口口口 |①---|
口①口② |②---|
口口口口
口口口口

口⑤⑤口
口④③口
口口口口 |③---|
口口口口 |④-⑤-|
69
口口口口 |--①-|
口口口口 |②-③-|
口③②① |④-⑤-|
④⑤⑥⑦ |⑥-⑦-|
70
口口口口 |--①-|
口口口口 |②-③-|
口③②① |④-⑤-|
④⑤⑥⑦ |⑥-⑦-|


不確定度: 0

最終更新:2013年02月26日 21:40