記憶の欠片
Sana

EXTREME

Level: 7
BPM: 153
Notes: 508

1
口口口口 |----|
口口口口 |----|
口口口口 |----|
口口口口 |----|
2
口口④口 |①-②-|
口③②口 |③-④-|
⑤①⑥口 |--⑤-|
口口口口 |--⑥-|
3
①口口口 |--①-|
口口③口 |②-③-|
口②口口
口口口口

⑥⑥口④
口口口口
口口口口 |④---|
口口⑤⑤ |⑤-⑥-|
4
口口③④ |①---|
口②口⑤ |②---|
①口①口 |③-④-|
口②口口 |⑤---|
5
口口口口 |①---|
口口②口 |②---|
③①口① |③-④-|
④⑤②口 |⑤---|
6
口②口口 |①---|
①口①口 |②---|
口②口③ |③-④-|
口口⑤④ |⑤---|
7
④③②口 |①---|
⑤①口① |②---|
口口②口 |③-④-|
口口口口 |⑤---|
8
⑤④口口 |①-②-|
⑥口③口 |③---|
口①②① |④-⑤-|
口口③口 |⑥---|
9
口口口口 |①-②-|
口③口口 |③---|
①②①④ |④-⑤-|
口③⑥⑤ |⑥---|
10
⑥口③⑥ |①-②-|
口①②① |③---|
④口③口 |④---|
口⑤⑤口 |⑤-⑥-|
11
口口口口 |----|
口口口口 |----|
口口口口 |----|
口口口口 |----|
12
口口④口 |①---|
口③口⑤ |--②-|
②口⑥口 |③-④-|
①①①① |⑤-⑥-|
13
②口③口 |①---|
口④口⑤ |②---|
口口口口 |③---|
口①口口 |④-⑤-|
14
口口口口 |----|
口④口口 |----|
②口口③ |①-②-|
口口①口 |③-④-|
15
口③口⑥ |①-②-|
口口①⑤ |③-④⑤|
口②④口 |----|
口口口口 |--⑥-|
16
①口口口 |①---|
②⑥①③ |--②-|
⑤③口口 |③---|
口口口④ |④-⑤⑥|
17
口口①② |①---|
口口③口 |--②-|
口口口④ |③-④-|
口口口口 |----|
18
口③③② |----|
③①②口 |①---|
口①②口 |②---|
①口口口 |③---|
19
口口口口 |①--②|
口②口口 |--③-|
口口③①
口①①口

④口④⑧
⑤口口⑨
⑥口口⑩ |④⑤⑥⑦|
⑦口口⑪ |⑧⑨⑩⑪|
20
口口③④ |----|
口②口口 |--①-|
①口⑤口 |②-③④|
口口口口 |--⑤-|
21
②⑤③口 |①---|
口口⑥④ |②---|
口口口口 |③---|
口①口口 |④-⑤⑥|
22
⑥口口口 |①-②-|
⑤口口口 |③---|
④①②口 |--④-|
口③口口 |⑤-⑥-|
23
口③⑥口 |①-②-|
口口①⑤ |③-④⑤|
口②口④ |----|
口口口口 |--⑥-|
24
①②④③ |①---|
①口口③ |--②-|
口③①口 |③---|
口口口口 |--④-|
25
口口口口 |①---|
口①口口 |--②-|
口口③口 |③-④-|
口②口④ |----|
26
口③口口 |----|
口②⑥口 |--①②|
口①④口 |③-④-|
口口⑤口 |⑤-⑥-|
27
口②口口 |①---|
口口口口 |--②-|
口口口①
口口口①

口口口口
③⑤⑥⑦
④⑤⑥⑦ |③④⑤⑥|
口口口口 |⑦---|
28
④④口口 |----|
③③⑤口 |①---|
②②口口 |②-③-|
口口①口 |④-⑤-|
29
口口口② |----|
口③口口 |①---|
口④口口 |②-③-|
口口口① |④---|
30
口口③③ |----|
口口②② |----|
④口①① |①-②-|
口口口口 |③-④-|
31
口①口口 |--①-|
②口④口 |②---|
口口口③ |③---|
口口②口 |④---|
32
口口⑤口 |----|
②④口口 |①-②-|
①口③口 |--③-|
口①口口 |④-⑤-|
33
口③口口 |--①-|
④口口① |②---|
口口口② |----|
口口口口 |③-④-|
34
口口④口 |--①-|
口⑤③口 |②-③-|
⑥口②口 |--④-|
口①口口 |⑤-⑥-|
35
④口⑥⑦ |--①-|
口⑤③口 |②-③-|
口②口口 |--④-|
口口①口 |⑤-⑥⑦|
36
口口口口 |----|
口口口口 |----|
口口口口 |----|
①口口① |--①-|
37
②口口② |①-②-|
①①口口 |----|
口口①①
口口口口

口③③口
口⑤⑤口
口④⑥口 |③-④-|
口口口口 |⑤-⑥-|
38
②③口④ |①-②-|
①口口④ |③-④-|
口口口口
口口①口

口口口口
口⑥口口
⑤口口⑦ |--⑤-|
口口⑥口 |⑥-⑦-|
39
①口②口 |①---|
①口②口 |②---|
口口口口
口口口①

口口口口
⑥③口⑤
⑥口④口 |③-④-|
口口口⑤ |⑤-⑥-|
40
口①口③ |①---|
口⑤口口 |②---|
④口⑥② |③-④-|
口口①口 |⑤-⑥-|
41
口④口口 |①---|
口口③① |--②-|
口④口② |③-④-|
口①③⑤ |⑤---|
42
口口③口 |①-②-|
①②⑦④ |③-④-|
口⑥口口 |⑤---|
⑤①口口 |⑥-⑦-|
43
②①⑤口 |①---|
③口口④ |②---|
④口口③ |③-④-|
口⑤①② |--⑤-|
44
口①口口 |①---|
口口③口 |----|
口⑤④口 |②-③-|
口口①② |④-⑤-|
45
口口口口 |①---|
③①②口 |--②③|
②口口口
口口①口

④口口⑤
口口口口
口⑥口④ |④-⑤-|
口口⑦口 |⑥-⑦-|
46
口③②④ |①-②-|
口①口④ |③-④-|
口口口口
①口口口

口口口口
口⑥口口
⑤口口⑦ |--⑤-|
口口⑥口 |⑥-⑦-|
47
①口②口 |①---|
①口②口 |②---|
口口口口
口口口①

口口口口
⑥③口⑤
⑥口④口 |③-④-|
口口⑥⑤ |⑤-⑥-|
48
①口口③ |①---|
口⑤口口 |②---|
④口⑥② |③-④-|
口①口口 |⑤-⑥-|
49
口④口口 |①---|
口口③① |--②-|
口④口② |③-④-|
口①③⑤ |⑤---|
50
口④②口 |①-②-|
口⑥③① |③-④-|
⑦口口口 |⑤---|
口①口⑤ |⑥-⑦-|
51
②口口① |①---|
①口口② |②---|
口口口口
口①口口

口口⑥口
口③口口
口口④口 |③-④-|
口⑤口口 |⑤-⑥-|
52
口口口③ |①---|
口⑤④口 |----|
口口③口 |②-③-|
②口口① |④-⑤-|
53
口口口口 |①---|
口口口口 |----|
口口口口
口口①口

③口口口
口④口口
口③⑤口 |②-③-|
口口④② |④-⑤-|
54
②⑦③口 |①---|
口⑥①⑤ |--②-|
口④口口 |③-④-|
口①口口 |⑤-⑥⑦|
55
口口口口 |----|
口口口口 |①---|
②口口口 |②-③-|
③④⑤① |④-⑤-|
56
口②口口 |----|
①③①⑤ |①-②-|
口②④口 |--③-|
口口口口 |④-⑤-|
57
⑥⑥①⑥ |①-②-|
③口②口 |③-④-|
口④口口 |⑤-⑥-|
⑤①⑤⑤ |----|
58
口口③口 |①---|
口口⑤口 |②---|
②④口口 |③---|
口①口口 |④-⑤-|
59
口②口① |①---|
口口口③ |--②-|
口口口④ |--③-|
口口口⑤ |④-⑤-|
60
①③口① |①-②-|
④口①④ |③-④-|
口②④口
口口口口

口口口口
口口⑥口
口口口口 |--⑤-|
口口⑤口 |--⑥-|
61
口④③口 |①-②-|
④口口④ |③-④-|
口①②①
①口口口

口口口⑤
口口⑥口
⑦口口⑦ |--⑤-|
口口⑦口 |⑥-⑦-|
62
口口③④ |①---|
口②口⑤ |②---|
口①口口 |③-④-|
口②口口 |⑤---|
63
口口口口 |①---|
口口②口 |②---|
③①口① |③-④-|
④⑤②口 |⑤---|
64
口②口口 |①---|
①口①口 |②---|
口②口③ |③-④-|
口口⑤④ |⑤---|
65
④③②口 |①---|
⑤①口① |②---|
口口②口 |③-④-|
口口口口 |⑤---|
66
⑤④口口 |①-②-|
⑥口③口 |③---|
口①②① |④-⑤-|
口口③口 |⑥---|
67
口口口口 |①-②-|
口③口口 |③---|
①②①④ |④-⑤-|
口③⑥⑤ |⑥---|
68
⑥口③⑥ |①-②-|
口①②① |③---|
④口③口 |④---|
口⑤⑤口 |⑤-⑥-|
69
口④口口 |--①-|
⑦口口③ |②-③-|
口口②⑥ |④-⑤-|
①⑤口口 |⑥-⑦-|
70
口④口口 |--①-|
⑦口口③ |②-③-|
口口②⑥ |④-⑤-|
①⑤口口 |⑥-⑦-|


不確定度: 0

最終更新:2013年02月26日 21:40