INFORMER
lecca

BASIC

Level: 2
BPM: 112
Notes: 206

1
口口口口 |----|
口口口口 |----|
口口口口 |----|
口口口口 |----|
2
口口口口 |①---|
①②口口 |----|
口口口口 |②---|
口口口口 |----|
3
口口口口 |①---|
口口①② |----|
口口口口 |②---|
口口口口 |----|
4
口口口口 |①---|
口口口口 |----|
①②口口 |②---|
口口口口 |----|
5
口口口口 |①---|
口口口口 |----|
口口①② |②---|
口口口口 |----|
6
口①②口 |①---|
口口口口 |----|
口口口口 |②---|
口口口口 |----|
7
口口口口 |①---|
口①②口 |----|
口口口口 |②---|
口口口口 |----|
8
口口口口 |①---|
口口口口 |----|
口①②口 |②---|
口口口口 |----|
9
口口口口 |①---|
口口口口 |----|
口口口口 |②---|
口①②口 |----|
10
②口口口 |①---|
口①①口 |----|
口口口口 |②---|
口口口口 |----|
11
口口口② |①---|
口①①口 |----|
口口口口 |②---|
口口口口 |----|
12
口口口口 |①---|
②①①口 |----|
口口口口 |②---|
口口口口 |----|
13
口口口口 |①---|
口口口① |----|
口②②口 |②---|
口口口口 |----|
14
口口口口 |①---|
①②③④ |②---|
口口口口 |③---|
口口口口 |④---|
15
口口口口 |①---|
口口口口 |②---|
④③②① |③---|
口口口口 |④---|
16
口口④口 |①---|
①②口口 |②---|
口口③口 |③---|
口口口口 |④---|
17
口口口④ |①---|
①②口口 |②---|
口口口③ |③---|
口口口口 |④---|
18
口口口口 |①---|
④③口口 |②---|
①②口口 |③---|
口口口口 |④---|
19
①②③④ |①---|
口口口口 |②---|
口口口口 |③---|
口口口口 |④---|
20
口口口口 |①---|
口口③① |②---|
口口④② |③---|
口口口口 |④---|
21
口口口口 |①---|
③④口口 |②---|
②①口口 |③---|
口口口口 |④---|
22
①口口② |①---|
③口口④ |②---|
口口口口 |③---|
口口口口 |④---|
23
口口口口 |①---|
口口口口 |②---|
口①②口 |③---|
口③④口 |④---|
24
口口口口 |①---|
口口口口 |②---|
③口口④ |③---|
①口口② |④---|
25
口③④口 |①---|
口①②口 |②---|
口口口口 |③---|
口口口口 |④---|
26
口口口口 |①-②-|
①②③④ |③-④-|
⑧⑦⑥⑤ |⑤-⑥-|
口口口口 |⑦-⑧-|
27
口口口口 |①-②-|
①②③④ |③-④-|
⑧⑦⑥⑤ |⑤-⑥-|
口口口口 |⑦-⑧-|
28
①④⑤⑧ |①-②-|
②③⑥⑦ |③-④-|
口口口口 |⑤-⑥-|
口口口口 |⑦-⑧-|
29
①②③④ |①-②-|
口⑤⑤口 |③-④-|
口口口口 |⑤---|
口口口口 |----|
30
口口口口 |①---|
口口口口 |----|
口②②口 |②---|
口①①口 |----|
31
口②②口 |①---|
口①①口 |----|
口口口口 |②---|
口口口口 |----|
32
口口口口 |①---|
口口口口 |----|
①口口② |②---|
口口口口 |----|
33
口①①口 |①---|
口②②口 |②---|
口③③口 |③---|
口④④口 |④---|
34
口口口口 |①---|
②①③④ |②---|
口口口口 |③---|
口口口口 |④---|
35
口口口口 |①---|
口口口口 |②---|
②①③④ |③---|
口口口口 |④---|
36
②①①② |①---|
口口口口 |----|
口口口口 |②---|
口口口口 |----|
37
口口口口 |①---|
④①①④ |②---|
③②②③ |③---|
口口口口 |④---|
38
①口口② |--①-|
口口口口 |----|
口口口口 |②---|
口口口口 |----|
39
口口口口 |--①-|
①口口② |----|
口口口口 |②---|
口口口口 |----|
40
口口口口 |--①-|
口口口口 |----|
①口口② |②---|
口口口口 |----|
41
④口口⑤ |①---|
口③③口 |②---|
口②②口 |③---|
口①①口 |④-⑤-|
42
②③口口 |①---|
口①①口 |----|
口口口口 |②---|
口口口口 |③---|
43
口口③② |①---|
口①①口 |----|
口口口口 |②---|
口口口口 |③---|
44
口口口口 |①---|
口①①口 |----|
口口口口
口口口口

口口口口
②③口口
口口口口 |②---|
口口口口 |③---|
45
口口口口 |①---|
口口②① |②---|
口③③口 |③---|
口口口口 |----|
46
②口口口 |①---|
③①①口 |----|
口口口口 |②---|
口口口口 |③---|
47
口口口② |①---|
口①①③ |----|
口口口口 |②---|
口口口口 |③---|
48
口口口口 |①---|
②①①口 |----|
③口口口 |②---|
口口口口 |③---|
49
口口口口 |①---|
口③③① |②---|
口③③② |③---|
口口口口 |----|
50
①口口② |①---|
口口口口 |----|
口口口口 |②---|
口口口口 |----|
51
口口口口 |①---|
①口口② |----|
口口口口 |②---|
口口口口 |----|
52
口口口口 |①---|
口口口口 |----|
①口口② |②---|
口口口口 |----|
53
口②②口 |①---|
口口口口 |----|
口口口口 |②---|
口①①口 |----|
54
口口口口 |①---|
口①①口 |----|
口①①口 |----|
口口口口 |----|

不確定度: 0

最終更新:2014年08月01日 00:17