HEAT-BIT-HIT-BEAT
V.C.O.

ADVANCED

Level: 9
BPM: 180
Notes: 795

1
口口口口 |----|
口口口口 |----|
口口口口 |----|
口口口口 |----|
2
口口口口 |----|
口口口口 |----|
口口口口 |----|
口口口口
3
①口口① |①---|
②③④② |②---|
口③④口 |③-④-|
⑤口口⑤ |--⑤-|
4
口②②口 |--①-|
口口口口 |②---|
①口口① |③---|
口③③口
5
①口口① |①---|
②③④② |②---|
口③④口 |③-④-|
⑤口口⑤ |--⑤-|
6
口②②口 |--①-|
口口口口 |②---|
①口口① |③---|
口③③口
7
③③④④ |①---|
①②①② |②---|
口口口口 |③-④-|
口⑤口⑤ |--⑤-|
8
口③③口 |--①-|
口口口口 |②---|
②口口② |③---|
①口①口
9
①口口① |①---|
②③④② |②---|
口③④口 |③-④-|
⑤口口⑤ |--⑤-|
10
口②②口 |--①-|
口口口口 |②---|
①口口① |③---|
口③③口
11
①口口① |①---|
②③④② |②---|
口③④口 |③-④-|
⑤口口⑤ |--⑤-|
12
口②②口 |--①-|
口口口口 |②---|
①口口① |③---|
口③③口
13
①口口① |①---|
②③④② |②---|
口③④口 |③-④-|
⑤口口⑤ |--⑤-|
14
口②②口 |--①-|
口口口口 |②---|
①口口① |③---|
口③③口
15
③③④④ |①---|
①②①② |②---|
口口口口 |③-④-|
口⑤口⑤ |--⑤-|
16
口③③口 |--①-|
口口口口 |②---|
②口口② |③---|
①口①口
17
口口口① |①---|
②口口口 |②---|
口口口③ |--③-|
④口口口 |--④-|
18
口口口口 |①---|
口①①口 |----|
口①①口 |----|
口口口口
19
①②③口 |①-②-|
口⑥⑤④ |③-④-|
⑦⑧口口 |⑤-⑥-|
口口口口 |⑦-⑧-|
20
口口口口 |①-②-|
口口口口 |③-④-|
口口②① |⑤-⑥-|
③④⑥⑤
21
口③②① |①-②-|
④⑤⑥口 |③-④-|
口口⑧⑦ |⑤-⑥-|
口口口口 |⑦-⑧-|
22
口口口口 |①-②-|
口口口口 |③-④-|
①②口口 |⑤-⑥-|
⑤⑥④③
23
①④⑤② |①-②-|
①④⑤② |③---|
⑥③③⑥ |④-⑤-|
口口口口 |⑥---|
24
口④口① |①-②-|
口④口① |③-④-|
口口口⑤ |--⑤-|
②②③③
25
①④⑤② |①-②-|
①④⑤② |③---|
⑥③③⑥ |④-⑤-|
口口口口 |⑥---|
26
口口口⑤ |①-②-|
③口口③ |③-④-|
口④④口 |--⑤-|
①②②①
27
①②③口 |①-②-|
口⑥⑤④ |③-④-|
⑦⑧口口 |⑤-⑥-|
口口口口 |⑦-⑧-|
28
口口口口 |①-②-|
口口口口 |③-④-|
口口②① |⑤-⑥-|
③④⑥⑤
29
口③②① |①-②-|
④⑤⑥口 |③-④-|
口口⑧⑦ |⑤-⑥-|
口口口口 |⑦-⑧-|
30
口口口口 |①-②-|
口口口口 |③-④-|
①②口口 |⑤-⑥-|
⑤⑥④③
31
①④⑤② |①-②-|
①④⑤② |③---|
⑥③③⑥ |④-⑤-|
口口口口 |⑥---|
32
口④口① |①-②-|
口④口① |③-④-|
口口口⑤ |--⑤-|
②②③③
33
①④⑤② |①-②-|
①④⑤② |③---|
⑥③③⑥ |④-⑤-|
口口口口 |⑥---|
34
口口口⑤ |①-②-|
③口口③ |③-④-|
口④④口 |--⑤-|
①②②①
35
①①口口 |①-②-|
口⑤⑧口 |③-④-|
⑦口⑥② |⑤-⑥-|
③口④口 |⑦-⑧-|
36
口口口口 |①-②-|
①⑤口④ |③-④-|
口口口口 |⑤-⑥-|
口③⑥②
37
①①口口 |①-②-|
⑤口⑧口 |③-④-|
口口④② |⑤-⑥-|
③⑦口⑥ |⑦-⑧-|
38
口口口口 |①-②-|
口⑤口④ |③-④-|
③①⑥② |⑤-⑥-|
口口口口
39
①①口口 |①-②-|
⑤口②⑥ |③-④-|
⑦③⑧④ |⑤-⑥-|
口口口口 |⑦-⑧-|
40
口口口口 |①-②-|
⑤①④口 |③-④-|
口③口⑥ |⑤-⑥-|
口口②口
41
①①⑧口 |①-②-|
口⑤⑥② |③-④-|
③⑦④口 |⑤-⑥-|
口口口口 |⑦-⑧-|
42
口口口口 |①-②-|
②⑤⑥口 |③-④-|
④⑦⑧① |⑤⑥⑦⑧|
口口③口
43
①①口⑥ |①-②-|
⑦⑦口② |③-④-|
⑤口口④ |⑤-⑥-|
③③口⑧ |⑦-⑧-|
44
⑤⑤⑥⑥ |①-②-|
口口口口 |③-④-|
口①①④ |⑤-⑥-|
③③②口
45
口口⑧⑧ |①-②-|
①①口② |③-④-|
口③③⑥ |⑤-⑥-|
⑤⑦口④ |⑦-⑧-|
46
⑤⑤口口 |①-②-|
①口②② |③-④-|
③③口⑥ |⑤-⑥-|
口口口④
47
⑦⑦口⑧ |①-②-|
③③口④ |③-④-|
⑤口②口 |⑤-⑥-|
①①口⑥ |⑦-⑧-|
48
口口口口 |①-②-|
③③⑥⑥ |③-④-|
⑤⑤④② |⑤-⑥-|
①①口口
49
①①⑥⑥ |①-②-|
⑤⑦⑧口 |③-④-|
口口口④ |⑤-⑥-|
③③口② |⑦-⑧-|
50
口①口口 |①-②-|
口口口④ |③-④-|
③⑤⑥口 |⑤⑥⑦⑧|
口⑦⑧②
51
③口口③ |①②--|
④①②口 |③---|
口口口⑤ |④-⑤-|
⑥口口口 |⑥---|
52
④④口口 |①-②-|
口口①① |③-④-|
②口口⑤ |⑤-⑥-|
口⑥③口
53
④④①① |①-②-|
②口口⑤ |③---|
⑥口③口 |④-⑤-|
口口口口 |⑥---|
54
口口口② |①-②-|
③口口口 |③-④-|
口⑦⑥口 |⑤⑥⑦-|
①⑤口④
55
口①②口 |①②--|
④④口口 |③---|
③口⑤③ |④-⑤-|
⑥口口口 |⑥---|
56
④④①① |①-②-|
口口⑤口 |③-④-|
口②口口 |⑤-⑥-|
⑥口口③
57
口口口口 |①-②-|
口口口口 |③---|
④④①① |④-⑤-|
⑥②③⑤ |⑥---|
58
口①②口 |①②③-|
③口口口 |④-⑤-|
口⑦⑥④ |⑥⑦⑧-|
口⑤口⑧
59
③口口③ |①②--|
④①②口 |③---|
口口口⑤ |④-⑤-|
⑥口口口 |⑥---|
60
④④口口 |①-②-|
口口①① |③-④-|
②口口⑤ |⑤-⑥-|
口⑥③口
61
④④①① |①-②-|
②口口⑤ |③---|
⑥口③口 |④-⑤-|
口口口口 |⑥---|
62
口口口② |①-②-|
③口口口 |③-④-|
口⑦⑥口 |⑤⑥⑦-|
①⑤口④
63
口①②口 |①②--|
④④口口 |③---|
③口⑤③ |④-⑤-|
⑥口口口 |⑥---|
64
④④①① |①-②-|
口口⑤口 |③-④-|
口②口口 |⑤-⑥-|
⑥口口③
65
口口口口 |①-②-|
②口口口 |③---|
④④①① |④-⑤-|
⑥口③⑤ |⑥---|
66
口①②口 |①②③-|
③口口口 |④-⑤-|
口⑦⑥④ |⑥⑦⑧-|
口⑤口⑧
67
口口④① |①-②-|
③口⑤② |③-④-|
⑥口⑦口 |⑤-⑥-|
⑧口口口 |⑦-⑧-|
68
③口④口 |①②③-|
口口口⑤ |④-⑤-|
⑦口口⑥ |⑥-⑦-|
口口①②
69
口口口① |①-②-|
⑥口④口 |③-④-|
口⑦⑤口 |⑤-⑥-|
②⑧口③ |⑦-⑧-|
70
⑦口①② |①②③-|
口④口口 |④-⑤-|
③口口⑥ |⑥-⑦-|
口口⑤口
71
口⑤⑥口 |①②③-|
③口①② |④-⑤-|
口口④⑧ |⑥-⑦-|
⑦口口⑨ |⑧-⑨-|
72
口⑤口⑥ |①②③-|
口口①② |④-⑤-|
③口④口 |⑥-⑦-|
⑦口口口
73
口口口⑦ |①-②-|
②④口③ |③-④-|
⑥⑤口口 |⑤-⑥-|
⑧口口① |⑦-⑧-|
74
⑦口口⑦ |①②③-|
③口口口 |④-⑤-|
口⑥①② |⑥-⑦-|
口④⑤口
75
④口口④ |----|
③①①② |①---|
②口口③ |②-③-|
口口口口 |--④-|
76
口口口口 |--①-|
口口口口 |--②-|
②①①③ |③---|
③口口②
77
①口口① |①---|
口②②口 |②---|
口口口口
口口口口

⑤口口⑤
④口口③
③口口④ |③-④-|
口口口口 |--⑤-|
78
口口口口 |--①-|
口口口口 |--②-|
②①①③ |③---|
③口口②
79
口口④① |①-②-|
③口⑤② |③-④-|
⑥口⑦口 |⑤-⑥-|
⑧口口口 |⑦-⑧-|
80
③口④口 |①②③-|
口口口⑤ |④-⑤-|
⑦口口⑥ |⑥-⑦-|
口口①②
81
口口口① |①-②-|
⑥口④口 |③-④-|
口⑦⑤口 |⑤-⑥-|
②⑧口③ |⑦-⑧-|
82
⑦口①② |①②③-|
口④口口 |④-⑤-|
③口口⑥ |⑥-⑦-|
口口⑤口
83
口⑤⑥口 |①②③-|
③口①② |④-⑤-|
口口④⑧ |⑥-⑦-|
⑦口口⑨ |⑧-⑨-|
84
口⑤口⑥ |①②③-|
口口①② |④-⑤-|
③口④口 |⑥-⑦-|
⑦口口口
85
口口口⑦ |①-②-|
②④口③ |③-④-|
⑥⑤口口 |⑤-⑥-|
⑧口口① |⑦-⑧-|
86
口口口口 |①②③-|
③口口口 |④-⑤-|
口⑥①② |⑥---|
口④⑤口
87
⑤①①⑤ |①---|
②口口② |②---|
口④③口 |③-④-|
口③④口 |--⑤-|
88
口口口口 |--①-|
口①①口 |--②-|
③口口② |③---|
②口口③
89
⑤①①⑤ |①---|
②口口② |②---|
口④③口 |③-④-|
口③④口 |--⑤-|
90
口口口口 |--①-|
口①①口 |--②-|
③口口② |③---|
②口口③
91
口口④① |①-②-|
③口⑤② |③-④-|
⑥口⑦口 |⑤-⑥-|
⑧口口口 |⑦-⑧-|
92
③口④口 |①②③-|
口口口⑤ |④-⑤-|
⑦口口⑥ |⑥-⑦-|
口口①②
93
口口口① |①-②-|
⑥口④口 |③-④-|
口⑦⑤口 |⑤-⑥-|
②⑧口③ |⑦-⑧-|
94
⑦口①② |①②③-|
口④口口 |④-⑤-|
③口口⑥ |⑥-⑦-|
口口⑤口
95
口⑤⑥口 |①②③-|
③口①② |④-⑤-|
口口④⑧ |⑥-⑦-|
⑦口口⑨ |⑧-⑨-|
96
口⑤口⑥ |①②③-|
口口①② |④-⑤-|
③口④口 |⑥-⑦-|
⑦口口口
97
口口口⑦ |①-②-|
②④口③ |③-④-|
⑥⑤口口 |⑤-⑥-|
⑧口口① |⑦-⑧-|
98
⑥⑥口口 |①②③-|
③口⑦⑦ |④-⑤-|
口口①② |⑥-⑦-|
口④⑤口
99
口口②② |①---|
③③口口 |②-③-|
①①④④ |④---|
⑤⑤⑥⑥ |⑤-⑥-|
100
⑥③口⑥ |①②③-|
④口②④ |④-⑤-|
⑤①口⑤ |⑥---|
口口口口


不確定度: 0

タグ:

+ タグ編集
  • タグ:

このサイトはreCAPTCHAによって保護されており、Googleの プライバシーポリシー利用規約 が適用されます。

最終更新:2013年03月29日 20:30