Find your way
J.Speaks

ADVANCED

Level: 5
BPM: 130
Notes: 417

1
口口口口 |----|
口口口口 |----|
口口口口 |----|
口口口口 |----|
2
⑥口⑤口 |①---|
③④口口 |②--③|
口②口② |-④-⑤|
口①口① |⑥---|
3
口⑤口⑥ |①---|
口口④③ |②--③|
②口②口 |-④-⑤|
①口①口 |⑥---|
4
⑥口⑤口 |①---|
③④口口 |②--③|
口②口② |-④-⑤|
口①口① |⑥---|
5
口⑤口⑥ |①---|
口口④③ |②--③|
②口②口 |-④-⑤|
①口①口 |⑥---|
6
④⑥⑤③ |①---|
口⑥⑤口 |②--③|
口②口② |-④-⑤|
①口①口 |⑥---|
7
③⑤⑥④ |①---|
口⑤⑥口 |②--③|
②口②口 |-④-⑤|
口①口① |⑥---|
8
④⑥⑤③ |①---|
口⑥⑤口 |②--③|
口②口② |-④-⑤|
①口①口 |⑥---|
9
口口口口 |①---|
③口口③ |②--③|
②口②口
口①口①

口⑤⑤口
口口口口
口口口口 |----|
口④④口 |④-⑤-|
10
口口口口 |①---|
口口口口 |②--③|
①②②①
口③③口

口口口口
口口口口
④口口④ |----|
口口口口 |④---|
11
口⑤⑤口 |①---|
①①②② |②--③|
口③③口 |----|
口④④口 |④-⑤-|
12
口口口口 |①---|
口②②口 |--②-|
①③③① |③---|
口口口口 |----|
13
口口②② |①---|
口③③口 |②--③|
口③③口
①①口口

口⑤⑤口
口口口口
口口口口 |----|
口④④口 |④-⑤-|
14
口口口口 |①---|
口口口口 |②--③|
①②②①
口③③口

口口口口
口口口口
④口口④ |----|
口口口口 |④---|
15
口⑤⑤口 |①---|
①①②② |②--③|
口③③口 |----|
口④④口 |④-⑤-|
16
口口口口 |①---|
口②②口 |--②-|
①③③① |③---|
口口口口 |----|
17
口①②口 |①---|
①③③② |②---|
②③③① |③---|
口②①口 |----|
18
口③③口 |①-②-|
②口口④ |--③-|
口口口⑤ |--④-|
①口口⑥ |⑤-⑥-|
19
口口口口 |①-②-|
口④口口 |③-④-|
口③口口
口②①口

口口口口
口口口口
⑥口口口 |--⑤-|
口口⑤口 |--⑥-|
20
口口口口 |①-②-|
④口口口 |③-④-|
口②③①
口口口口

口口口口
口⑥⑦⑤
口⑧口口 |⑤-⑥-|
口口口口 |⑦-⑧-|
21
④口口⑤ |--①-|
③口口⑤ |②-③-|
②口口口 |④---|
①口口口 |⑤---|
22
口①③口 |①-②-|
口②④口 |③-④-|
⑤⑦⑧⑥ |⑤⑥⑦⑧|
口⑨⑨口 |--⑨-|
23
口口口口 |--①-|
①③④② |②-③-|
口⑤⑥口 |④-⑤⑥|
口⑦⑦口 |--⑦-|
24
口口①口 |--①-|
③②口口 |②-③-|
口口④⑤ |④-⑤-|
⑦⑥口口 |⑥-⑦-|
25
⑤①①⑤ |①-②-|
口③③口 |③-④-|
口②②口 |⑤---|
口④④口 |----|
26
⑧⑥②④ |①-②-|
口口口口 |③-④-|
口口口口 |⑤-⑥-|
⑤⑦③① |⑦-⑧-|
27
口口口口 |①---|
口②②口 |②---|
口①①口
口口口口

口口口口
口⑥口口
口④⑤口 |③-④-|
③口口③ |⑤-⑥-|
28
⑥⑧④② |①-②-|
口口口口 |③-④-|
口口口口 |⑤-⑥-|
⑦⑤①③ |⑦-⑧-|
29
②口口② |①---|
④⑤口口 |②---|
口①①口 |③---|
③口口③ |④-⑤-|
30
口口口口 |①---|
口口口口 |②-③-|
口③①①
口②口口

口口口口
口④⑤口
口口⑥口 |④-⑤-|
口口⑦口 |⑥-⑦-|
31
口口口口 |①-②-|
⑤口口⑥ |③-④-|
③⑦⑦④ |⑤-⑥-|
①口口② |⑦---|
32
①口口口 |--①-|
口③口口 |②-③-|
口口口口
口口口②

⑥⑥口⑤
口口口口
口口④口 |④---|
⑤口口口 |⑤--⑥|
33
口口口口 |--①-|
⑤④④③ |②-③-|
②④④⑥ |④---|
口口①① |⑤-⑥-|
34
③①①③ |①---|
口口口口 |②--③|
④⑤口口 |--④-|
口②②⑥ |⑤-⑥-|
35
口②②口 |①--②|
口口口口 |--③-|
③口口③
口口①口

口口口口
口口口口
口口口口 |----|
④④⑤⑤ |④-⑤-|
36
③口口③ |①---|
口①①口 |②--③|
口②②口
口口口口

口口口口
口口口口
④口⑥口 |--④-|
口⑤口口 |⑤-⑥-|
37
口②②口 |①--②|
④④⑤⑤ |--③-|
③口口③ |----|
口口口① |④-⑤-|
38
③①①③ |①---|
口口口口 |②--③|
④⑤口口 |--④-|
口②②⑥ |⑤-⑥-|
39
④②②⑤ |①--②|
④口口⑤ |--③-|
③口口③ |----|
口口①口 |④-⑤-|
40
③口口③ |①---|
口①①口 |②--③|
口口口口
口②②口

口口口口
④口⑥口
口⑤口口 |--④-|
口口口口 |⑤-⑥-|
41
口⑦⑦口 |①-②-|
口③口⑤ |③-④-|
②口④① |⑤---|
口⑥⑥口 |⑥-⑦-|
42
口口口口 |①---|
口口口口 |②--③|
①②②①
口③③口

口口口口
口口口口
④口口④ |----|
口口口口 |④---|
43
口⑤⑤口 |①---|
①①②② |②--③|
口③③口 |----|
口④④口 |④-⑤-|
44
口口口口 |①---|
口②②口 |--②-|
①③③① |③---|
口口口口 |----|
45
口口②② |①---|
口③③口 |②--③|
口③③口
①①口口

口⑤⑤口
口口口口
口口口口 |----|
口④④口 |④-⑤-|
46
口口口口 |①---|
口口口口 |②--③|
①②②①
口③③口

口口口口
口口口口
④口口④ |----|
口口口口 |④---|
47
口⑤⑤口 |①---|
①①②② |②--③|
口③③口 |----|
口④④口 |④-⑤-|
48
口口口口 |①---|
口②②口 |--②-|
①③③① |③---|
口口口口 |----|
49
口①②口 |①---|
①③③② |②---|
②③③① |③---|
口②①口 |----|

不確定度: 0

最終更新:2014年08月01日 00:00