OverTheDogs

BASIC

Level: 3
BPM: 176
Notes: 198

1
口口口口 |----|
口口口口 |----|
口口口口 |----|
口口口口 |----|
2
口口口口 |①---|
口①口口 |----|
口口口口 |----|
口口口口 |----|
3
口口口口 |①---|
口口①口 |----|
口口口口 |----|
口口口口 |----|
4
口口口口 |①---|
①口口口 |----|
口口口口 |----|
口口口口 |----|
5
口口口口 |①---|
口口口① |----|
口口口口 |----|
口口口口 |----|
6
口口口口 |①---|
口口口口 |----|
口①①口 |----|
口口口口 |----|
7
口口口口 |①---|
①口口① |----|
口口口口 |----|
口口口口 |----|
8
口口口口 |①---|
口①①口 |----|
口口口口 |----|
口口口口 |----|
9
①口口① |①---|
口口口口 |----|
口口口口 |----|
口口口口 |----|
10
口口口口 |①---|
口②②口 |----|
口口口口 |----|
口①①口 |②---|
11
口①①口 |①---|
口口口口 |----|
口②②口 |----|
口口口口 |②---|
12
口口口口 |①---|
口②②口 |----|
口口口口 |----|
口①①口 |②---|
13
口①①口 |①---|
口口口口 |----|
口口口口 |----|
口口口口 |----|
14
口口口口 |①---|
②口口② |----|
口口口口 |----|
①口口① |②---|
15
①口口① |①---|
口口口口 |----|
②口口② |----|
口口口口 |②---|
16
口口口口 |①---|
②口口② |----|
口口口口 |----|
①口口① |②---|
17
①口口① |①---|
口口口口 |----|
口口口口 |----|
口口口口 |----|
18
口①口口 |①---|
口口②口 |----|
口口口口 |②---|
口口口口 |----|
19
口口①口 |①---|
口②口口 |----|
口口口口 |②---|
口口口口 |----|
20
口口口口 |①---|
口口口④ |②---|
口①②③ |③---|
口口口口 |④---|
21
口口口① |①---|
口口口口 |----|
口口口口 |----|
口口口口 |----|
22
①口口口 |①---|
②口口口 |----|
口口口口 |②---|
口口口口 |----|
23
口口口口 |①---|
口①口口 |②---|
口②③口 |③---|
口口口口 |----|
24
口口口① |①---|
口口②口 |----|
口口③口 |②---|
口口口口 |③---|
25
口口口口 |①---|
口口口口 |----|
口①口口 |----|
口口口口 |----|
26
口口①口 |①---|
口②口口 |----|
口口口口 |②---|
口口口口 |----|
27
口①口口 |①---|
口口②口 |----|
口口口口 |②---|
口口口口 |----|
28
口口口口 |①---|
④口口口 |②---|
③②①口 |③---|
口口口口 |④---|
29
①口口口 |①---|
口口口口 |----|
口口口口 |----|
口口口口 |----|
30
口口口① |①---|
口口口② |----|
口口口口 |②---|
口口口口 |----|
31
口口口口 |①---|
口口①口 |②---|
口③②口 |③---|
口口口口 |----|
32
①口口口 |①---|
口②口口 |----|
口③口口 |②---|
口口口口 |③---|
33
口口口口 |①---|
口口口口 |----|
口口①口 |----|
口口口口 |----|
34
②①①② |①---|
口口口口 |----|
口口口口 |②---|
口口口口 |----|
35
口口口口 |①---|
口口①口 |②---|
口②口口 |③---|
口口③口 |----|
36
口口口口 |①---|
②口口② |----|
①口口① |②---|
口口口口 |----|
37
①口口① |①---|
口口口口 |----|
口口口口 |----|
口口口口 |----|
38
②①①② |①---|
口口口口 |----|
口口口口 |②---|
口口口口 |----|
39
口口口口 |①---|
口①口口 |②---|
口口②口 |③---|
口③口口 |----|
40
口口口口 |①---|
②口口② |----|
①口口① |②---|
口口口口 |----|
41
①口口① |①---|
口口口口 |----|
口口口口 |----|
口口口口 |----|
42
②①①② |①---|
口口口口 |----|
口口口口 |②---|
口口口口 |----|
43
口口口口 |①---|
口口①口 |②---|
口②口口 |③---|
口口③口 |----|
44
口口口口 |①---|
②口口② |----|
①口口① |②---|
口口口口 |----|
45
①口口① |①---|
口口口口 |----|
口口口口 |----|
口口口口 |----|
46
口口口口 |①---|
口口口口 |----|
①①①① |----|
口口口口 |----|
47
口口口口 |①---|
①①①① |----|
口口口口 |----|
口口口口 |----|
48
口口①口 |①---|
口②口口 |----|
口口口口 |②---|
口口口口 |----|
49
口口口口 |①---|
口口口口 |----|
口口①口 |----|
口口口口 |----|
50
口口口口 |①---|
口①①口 |----|
口①①口 |----|
口口口口 |----|
51
口口口③ |①---|
口口②口 |②---|
口①口口 |③---|
口口口口 |----|
52
②①①② |①---|
口口口口 |----|
口口口口 |②---|
口口口口 |----|
53
口①①口 |①---|
口口口口 |----|
口口口口 |----|
口口口口 |----|
54
口口口口 |①---|
口①①口 |----|
口①①口 |----|
口口口口 |----|
55
③口口口 |①---|
口②口口 |②---|
口口①口 |③---|
口口口口 |----|
56
②①①② |①---|
口口口口 |----|
口口口口 |②---|
口口口口 |----|
57
口①①口 |①---|
口口口口 |----|
口口口口 |----|
口口口口 |----|
58
口口口口 |①---|
②①①② |----|
口①①口 |②---|
口口口口 |----|
59
口口口③ |①---|
口口②口 |②---|
口①口口 |③---|
口口口口 |----|
60
②①①② |①---|
口口口口 |----|
口口口口 |②---|
口口口口 |----|
61
口①①口 |①---|
口口口口 |----|
口口口口 |----|
口口口口 |----|
62
口口口口 |①---|
②①①② |----|
口①①口 |②---|
口口口口 |----|
63
③口口口 |①---|
口②口口 |②---|
口口①口 |③---|
口口口口 |----|
64
②①①② |①---|
口口口口 |----|
口口口口 |②---|
口口口口 |----|
65
口①①口 |①---|
口口口口 |----|
口口口口 |----|
口口口口 |----|
66
口口口口 |①---|
口口口口 |----|
①①①① |----|
口口口口 |----|
67
口口口口 |①---|
①①①① |----|
口口口口 |----|
口口口口 |----|
68
口口口口 |----|
口口口口 |----|
口口口口 |----|
口口口口 |----|
69
口口口口 |----|
口口口口 |----|
口口口口 |----|
口口口口 |----|
70
口口口口 |①---|
①①①① |----|
口口口口 |----|
口口口口 |----|
71
口口口口 |①---|
口口口口 |----|
①①①① |----|
口口口口 |----|

不確定度: 0

最終更新:2014年08月01日 02:38