OverTheDogs

ADVANCED

Level: 6
BPM: 176
Notes: 385

1
口口口口 |----|
口口口口 |----|
口口口口 |----|
口口口口 |----|
2
口口①口 |①---|
口口口口 |--②-|
口口②口 |----|
口口③口 |③---|
3
口①口口 |①---|
口口口口 |--②-|
口②口口 |----|
口③口口 |③---|
4
口口①口 |①---|
口口口口 |--②-|
口口②口 |----|
口口③口 |③---|
5
口①口口 |①---|
口口口口 |----|
口口口口 |----|
口口口口 |----|
6
①口①口 |①---|
口口口口 |--②-|
口②口口 |----|
口③口口 |③---|
7
口③口口 |①---|
口②口口 |--②-|
口口口口 |----|
①口①口 |③---|
8
①口①口 |①---|
口口口口 |--②-|
口②口口 |----|
口③口口 |③---|
9
口口口口 |①---|
口口口口 |----|
②③④⑤ |②-③-|
①口①口 |④-⑤-|
10
口口③口 |①---|
口口②口 |--②-|
口口口口 |----|
口①口① |③---|
11
口①口① |①---|
口口口口 |--②-|
口口②口 |----|
口口③口 |③---|
12
口口③口 |①---|
口口②口 |--②-|
口口口口 |----|
口①口① |③---|
13
口①口① |①-②-|
④口④口 |--③-|
③②③② |--④-|
⑤口⑤口 |⑤---|
14
①口①口 |①---|
口口口口 |--②-|
口②口口 |----|
口③口口 |③---|
15
口③口口 |①---|
口②口口 |--②-|
口口口口 |----|
①口①口 |③---|
16
①口①口 |①---|
口口口口 |--②-|
口②口口 |----|
口③口口 |③---|
17
口口口口 |①-②-|
③②③② |--③-|
口口口口 |--④-|
①④①④ |----|
18
①②⑤口 |①-②-|
口⑥④③ |③-④-|
口口口口 |⑤-⑥-|
口口口口 |----|
19
口口口口 |①-②-|
口口口⑤ |③-④-|
①②⑥口 |--⑤-|
口⑦④③ |⑥-⑦-|
20
②①口口 |①-②-|
③⑧⑦口 |③-④-|
④⑤⑥口 |⑤-⑥-|
口口口口 |⑦-⑧-|
21
口口口口 |----|
口口口口 |----|
口口口口 |----|
口口口口 |----|
22
④⑧口口 |①-②-|
②⑥口口 |③-④-|
①⑤口口 |⑤-⑥-|
③⑦口口 |⑦-⑧-|
23
口口④口 |①-②-|
口口②⑥ |③-④-|
口口①⑤ |----|
口口③口 |⑤-⑥-|
24
口口⑥② |①-②-|
口⑧④口 |③-④-|
口⑦③口 |⑤-⑥-|
口口⑤① |⑦-⑧-|
25
口口口口 |----|
口口口口 |----|
口口口口 |----|
口口口口 |----|
26
口⑤②① |①-②-|
③④⑥口 |③-④-|
口口口口 |⑤-⑥-|
口口口口 |----|
27
口口口口 |①-②-|
⑤口口口 |③-④-|
口⑥②① |--⑤-|
③④⑦口 |⑥-⑦-|
28
口口①② |①-②-|
口⑦⑧③ |③-④-|
口⑥⑤④ |⑤-⑥-|
口口口口 |⑦-⑧-|
29
口口口口 |----|
口口口口 |----|
口口口口 |----|
口口口口 |----|
30
口口⑦③ |①-②-|
口口⑤① |③-④-|
口口⑥② |⑤-⑥-|
口口⑧④ |⑦-⑧-|
31
口③口口 |①-②-|
口①口⑤ |③-④-|
口②口⑥ |--⑤-|
口④口⑦ |⑥-⑦-|
32
③⑦口口 |①-②-|
①⑤口口 |③-④-|
②⑥口口 |⑤-⑥-|
④⑧口口 |⑦-⑧-|
33
口口口口 |①---|
口口①口 |----|
口口口口 |----|
口口口口 |----|
34
③⑤⑥⑦ |①-②-|
②④口口 |③-④-|
①口口口 |⑤-⑥-|
口口口口 |--⑦-|
35
口口口口 |①-②-|
口口②① |③-④-|
口④③口 |--⑤-|
⑤⑥⑦口 |⑥-⑦-|
36
口口口口 |①-②-|
⑦⑧⑥⑤ |③-④-|
③④②① |⑤-⑥-|
口口口口 |⑦-⑧-|
37
口口口口 |----|
口口口口 |----|
口口口口 |----|
口口口口 |----|
38
口口口口 |①-②-|
口口口① |③-④-|
口口④② |⑤-⑥-|
⑦⑥⑤③ |--⑦-|
39
口⑦⑥⑤ |①-②-|
口③④口 |③-④-|
①②口口 |--⑤-|
口口口口 |⑥-⑦-|
40
口口口口 |①-②-|
①②口③ |③---|
④⑤⑦⑥ |④-⑤-|
口口口口 |⑥-⑦-|
41
口口口口 |----|
口口口口 |----|
口口口口 |----|
口口口口 |----|
42
③⑤⑥⑦ |①-②-|
②④口口 |③-④-|
①口口口 |⑤-⑥-|
口口口口 |--⑦-|
43
口口口口 |①-②-|
口口②① |③-④-|
口④③口 |--⑤-|
⑤⑥⑦口 |⑥-⑦-|
44
口口口口 |①-②-|
⑥⑦口⑤ |③-④-|
③④②① |--⑤-|
口口口口 |⑥-⑦-|
45
口口口口 |----|
③③口口 |----|
②②口口 |--①-|
①①口口 |②-③-|
46
口口①① |----|
口口②② |----|
口口③③ |--①-|
口口口口 |②-③-|
47
口口口口 |----|
口口口口 |----|
口口口口 |----|
口口口口 |----|
48
口①④口 |①-②-|
口⑤②口 |③---|
口③⑥口 |④-⑤-|
口⑦口口 |⑥-⑦-|
49
口口口口 |----|
口口口口 |----|
口口口口 |----|
口口口口 |----|
50
⑧口口口 |①-②-|
⑦①①口 |③-④-|
⑥②②口 |⑤-⑥-|
⑤④③口 |⑦-⑧-|
51
口口口① |①-②-|
口口⑦② |③-④-|
口⑥口③ |--⑤-|
口口⑤④ |⑥-⑦-|
52
②①①② |①---|
口口口口 |②---|
口⑥③口 |③-④-|
口④⑤口 |⑤-⑥-|
53
口口口口 |----|
口口口口 |----|
口口口口 |----|
口口口口 |----|
54
口口口⑧ |①-②-|
口①①⑦ |③-④-|
口②②⑥ |⑤-⑥-|
口③④⑤ |⑦-⑧-|
55
①口口口 |①-②-|
②⑦口口 |③-④-|
③口⑥口 |--⑤-|
④⑤口口 |⑥-⑦-|
56
②①①② |①---|
口口口口 |②---|
口③⑥口 |③-④-|
口⑤④口 |⑤-⑥-|
57
口口口口 |----|
口口口口 |----|
口口口口 |----|
口口口口 |----|
58
⑧①①口 |①-②-|
⑦①①口 |③-④-|
⑥②②口 |⑤-⑥-|
⑤④③口 |⑦-⑧-|
59
口口口① |①-②-|
口口⑦② |③-④-|
口⑥口③ |--⑤-|
口口⑤④ |⑥-⑦-|
60
②①①② |①---|
①口口① |②---|
②⑥③② |③-④-|
口④⑤口 |⑤-⑥-|
61
口口口口 |----|
口口口口 |----|
口口口口 |----|
口口口口 |----|
62
口①①⑧ |①-②-|
口①①⑦ |③-④-|
口②②⑥ |⑤-⑥-|
口③④⑤ |⑦-⑧-|
63
①口口口 |①-②-|
②⑦口口 |③-④-|
③口⑥口 |--⑤-|
④⑤口口 |⑥-⑦-|
64
②①①② |①---|
①口口① |②---|
②③⑥② |③-④-|
口⑤④口 |⑤-⑥-|
65
口口口口 |----|
口口口口 |----|
口口口口 |----|
口口口口 |----|
66
⑧①①口 |①-②-|
⑦①①口 |③-④-|
⑥②②口 |⑤-⑥-|
⑤④③口 |⑦-⑧-|
67
口口口① |①-②-|
口口口② |③-④-|
口口口③ |----|
口口口④ |----|
68
口口口口 |----|
口口口口 |----|
口口口口 |----|
口口口口 |----|
69
口口口口 |----|
口口口口 |----|
口口口口 |----|
口口口口 |----|
70
口①①⑧ |①-②-|
口①①⑦ |③-④-|
口②②⑥ |⑤-⑥-|
口③④⑤ |⑦-⑧-|
71
①口口口 |①-②-|
②口口口 |③-④-|
③口口口 |----|
④口口口 |----|

不確定度: 0

最終更新:2014年08月01日 02:38