オレンジ


BASIC

Level: 3
BPM: 182
Notes: 170

1
口口口口 |----|
口口口口 |----|
口口口口 |----|
口口口口 |----|
2
口口口口 |----|
口口口口 |----|
口口①口 |①---|
口口口口 |----|
3
口口口口 |①---|
口②口口 |----|
口①口口 |②---|
口口口口 |----|
4
口①口口 |①---|
口口口口 |----|
口口口口 |----|
口口口口 |----|
5
口口口口 |①---|
口口口口 |----|
口①②口 |②---|
口口口口 |----|
6
口口口口 |①---|
口口①口 |----|
口口口口 |----|
口口口口 |----|
7
①口口① |①---|
口口口口 |----|
口口口口 |----|
口口口口 |----|
8
口①①口 |①---|
口口口口 |----|
口口口口 |----|
口口口口 |----|
9
口口口口 |①---|
口①②口 |----|
口口口口 |②---|
口口口口 |----|
10
口口口口 |①---|
口口口口 |----|
口①②口 |②---|
口口口口 |----|
11
口口口口 |①---|
口②口口 |----|
口①口口 |②---|
口口口口 |----|
12
口①口口 |①---|
口口口口 |----|
口口口口 |----|
口口口口 |----|
13
口口口口 |①---|
口口口口 |----|
口①②口 |②---|
口口口口 |----|
14
口口口口 |①---|
②口①口 |----|
口口口口 |②---|
口口口口 |----|
15
口口口口 |①---|
口①口口 |----|
口口口② |②---|
口口口口 |----|
16
口口口口 |①---|
口口口口 |----|
口②①口 |②---|
口口口口 |----|
17
口口口口 |①---|
口口①口 |----|
口口口口 |----|
口口口口 |----|
18
口①口口 |①---|
口口②口 |----|
口口口口 |②---|
口口口口 |----|
19
口口口口 |①---|
口口口口 |----|
口①口口 |----|
口口口口 |----|
20
口口口口 |----|
口口口口 |----|
口口口口 |----|
口口口口 |----|
21
口口口口 |----|
口口口口 |----|
口口口口 |----|
口口口口 |----|
22
口口口口 |----|
口口口口 |----|
口口口口 |----|
口口口口 |----|
23
口①①口 |----|
口口口口 |----|
口口口口 |①---|
口口口口 |----|
24
口口③口 |①---|
口①②口 |----|
口口口口 |②---|
口口口口 |③---|
25
口①口口 |①---|
口口口口 |----|
口②②口 |②---|
口口口口 |----|
26
口口口口 |①---|
口口口口 |----|
口口③口 |②---|
口①②口 |③---|
27
口口口口 |①---|
②口口口 |----|
口①口口 |②---|
口口口口 |----|
28
③②口口 |①---|
口①口口 |----|
口口口口 |②---|
口口口口 |③---|
29
口口口口 |①---|
①②②口 |----|
口口口口 |②---|
口口口口 |----|
30
口口口口 |①---|
口口口口 |----|
③①①③ |②---|
口②②口 |③---|
31
口①①口 |----|
口口口口 |----|
口口口口 |①---|
口口口口 |----|
32
口口③口 |①---|
口①②口 |----|
口口口口 |②---|
口口口口 |③---|
33
口①口口 |①---|
口口口口 |----|
口②②口 |②---|
口口口口 |----|
34
口口口口 |①---|
口口口口 |----|
口口③口 |②---|
口①②口 |③---|
35
口口口口 |①---|
口口口② |----|
口①口口 |②---|
口口口口 |----|
36
口口②③ |①---|
口口①口 |----|
口口口口 |②---|
口口口口 |③---|
37
口口口口 |①---|
口②②① |----|
口口口口 |②---|
口口口口 |----|
38
口口口口 |①---|
口口口口 |----|
③口①③ |②---|
口②口口 |③---|
39
口口口口 |①---|
①②②① |----|
口口口口 |②---|
口口口口 |----|
40
①口口① |①---|
口②口口 |----|
口口口口 |②---|
口口口口 |----|
41
口口口口 |①---|
口口③口 |----|
口②①口 |②---|
口口口口 |③---|
42
口①口口 |①---|
③口口③ |②---|
②口口② |③---|
口口口口 |----|
43
口口口口 |①---|
口②②口 |----|
口①①口 |②---|
口口口口 |----|
44
①②口① |①---|
口口③口 |②---|
口④口口 |③---|
口口口口 |④---|
45
口口口口 |①---|
口口口口 |----|
口口口口 |----|
口口①口 |----|
46
口口口口 |①---|
口口口口 |----|
①口口① |----|
口口口口 |----|
47
口口口口 |①---|
②口口② |----|
口①①口 |②---|
口口口口 |----|
48
口①④口 |①---|
口③②口 |②---|
口口口口 |③---|
口口口口 |④---|
49
①口口① |①---|
口③口口 |----|
口②口口 |②---|
口口口口 |③---|
50
口①口口 |①---|
口口③口 |----|
口口②口 |②---|
口口口口 |③---|
51
口口①口 |①---|
口口口口 |----|
口②口口 |②---|
口口口口 |----|
52
口口口口 |①---|
口口口口 |----|
口口①口 |②---|
口③②口 |③---|
53
口口口口 |①---|
③口口口 |----|
②①口口 |②---|
口口口口 |③---|
54
①口口口 |①---|
口口口③ |----|
口口口② |②---|
口口口口 |③---|
55
口口口① |①---|
口口口口 |----|
口②②口 |②---|
口口口口 |----|
56
口①④口 |①---|
口③②口 |②---|
口口口口 |③---|
口口口口 |④---|
57
①口口① |①---|
口口③口 |----|
口口②口 |②---|
口口口口 |③---|
58
口口①口 |①---|
口③口口 |----|
口②口口 |②---|
口口口口 |③---|
59
口①口口 |①---|
口口口口 |----|
口口②口 |②---|
口口口口 |----|
60
口口口口 |①---|
口口口口 |----|
口①口口 |②---|
口②③口 |③---|
61
口口③口 |①---|
口②口口 |----|
口口①口 |②---|
口口口口 |③---|
62
口①口口 |①---|
口口②口 |②---|
口③口口 |③---|
口口口口 |----|
63
口口口口 |①---|
口口口口 |----|
②口口② |②---|
口①①口 |----|
64
口口口口 |----|
口口口口 |----|
口口口口 |----|
口口口口 |----|
65
②口口② |①---|
口①①口 |----|
口口口口 |②---|
口口口口 |----|
66
口①①口 |①---|
口②口口 |----|
口口③口 |②---|
口口口口 |③---|
67
口口口口 |①---|
口口②口 |----|
口①口口 |②---|
口口口口 |----|

不確定度: 0

最終更新:2014年08月01日 01:37