オレンジ


ADVANCED

Level: 6
BPM: 182
Notes: 388

1
口口口口 |----|
口口口口 |----|
口口口口 |----|
口口口口 |----|
2
口口口口 |----|
口③口口 |①---|
口②口口 |②---|
口①口口 |③---|
3
口④③④ |①---|
口口②口 |②---|
口口①口 |③---|
口口口口 |④---|
4
口口口口 |----|
口口②口 |----|
口①口口 |----|
口口口口 |①-②-|
5
口①②② |①---|
③③口口 |②---|
口口④④ |③---|
口口口口 |④---|
6
口口口② |①---|
口口口③ |----|
口口口口 |②---|
①①口口 |③---|
7
③口口口 |①-②-|
④口口口 |----|
①②口口 |③---|
口口口口 |④---|
8
口口口口 |①-②-|
口口口口 |----|
口口②① |----|
口口③口 |③---|
9
口口③口 |①---|
口④①口 |②---|
口口②口 |③---|
口口口口 |④---|
10
口①口口 |①---|
口④口口 |②---|
口③口口 |③---|
口②口口 |④---|
11
口④③④ |①---|
口口②口 |②---|
口口①口 |③---|
口口口口 |④---|
12
口口口口 |----|
口②口口 |----|
口口①口 |----|
口口口口 |①-②-|
13
②②①口 |①---|
口口③③ |②---|
④④口口 |③---|
口口口口 |④---|
14
②口口口 |①---|
③口口口 |----|
口口口口 |②---|
口口①① |③---|
15
口口③④ |①-②-|
口口口⑤ |--③-|
口口②① |④---|
口口口口 |⑤---|
16
口口口口 |①-②-|
口口④口 |--③-|
①②⑤口 |④---|
口口③口 |⑤---|
17
②口①口 |①---|
③口口口 |----|
口口口口 |----|
口口口口 |②-③-|
18
口口口口 |①---|
口口口② |②---|
①口口③ |③---|
口口口④ |④---|
19
口口口口 |①---|
口口口口 |----|
口口口口 |----|
口①①口 |----|
20
口口口口 |----|
口口口口 |----|
口口口口 |----|
口口口口 |----|
21
口口口口 |①---|
口①口口 |----|
口②口口 |②---|
口口口口 |----|
22
口口口口 |①---|
口③②口 |②---|
口④①口 |③---|
口口口口 |④---|
23
②口口口 |①---|
④⑦⑦口 |②-③-|
⑥口①⑤ |④-⑤-|
口口口③ |⑥-⑦-|
24
口口口口 |①---|
口口口口 |②-③-|
口③②口
口①①口

口口口口
④口口④
口口口口 |--④-|
口⑤⑤口 |--⑤-|
25
口口口① |----|
口⑥⑥③ |①-②-|
④口口⑤ |③-④-|
②口口口 |⑤-⑥-|
26
口口口口 |①---|
口口口口 |②-③-|
口②③口
口①①口

口口口口
④口口④
口口口口 |--④-|
口⑤⑤口 |--⑤-|
27
①口口口 |----|
③口口⑥ |①-②-|
⑤口口④ |③-④-|
口口口② |⑤-⑥-|
28
口①①口 |①---|
口②②口 |②---|
口③③口 |③---|
④⑤口口 |④-⑤-|
29
口口口口 |①---|
③口口② |②---|
口口口④ |③---|
口口①口 |④---|
30
口⑤口口 |①---|
口⑥口口 |②-③-|
①口口口 |④---|
口④③② |⑤-⑥-|
31
①口口口 |----|
③⑥⑥口 |①-②-|
⑤口口④ |③-④-|
口口口② |⑤-⑥-|
32
口口口口 |①---|
口口口口 |②-③-|
口③②口
口①①口

口口口口
④口口④
口口口口 |--④-|
口⑤⑤口 |--⑤-|
33
口口口① |----|
口⑥⑥③ |①-②-|
④口口⑤ |③-④-|
②口口口 |⑤-⑥-|
34
③②②③ |①---|
口口口口 |②-③-|
口口口口
口①①口

口口口口
④口口④
口⑤⑤口 |--④-|
口⑥⑥口 |⑤-⑥-|
35
①口口口 |----|
③口口⑥ |①-②-|
⑤口口④ |③-④-|
口口口② |⑤-⑥-|
36
口①①口 |①---|
口②②口 |②---|
口③③口 |③---|
④⑤口口 |④-⑤-|
37
口口口口 |①---|
③口口② |②---|
口口④④ |③---|
口口①口 |④---|
38
口口口口 |①---|
⑤⑥口口 |②-③-|
①①口口 |④---|
口④③② |⑤-⑥-|
39
③⑤③⑤ |①---|
口口①口 |②-③-|
口②④口 |--④-|
口口口口 |⑤---|
40
口口口口 |----|
口口口口 |①---|
口②口口 |②---|
①③①口 |③---|
41
口口口口 |①---|
④②④口 |②-③-|
①③①口 |--④-|
口⑤口口 |⑤---|
42
口口口口 |----|
口②口口 |①---|
口口①口 |②---|
口口③口 |③---|
43
⑤③⑤③ |①---|
口口口① |②-③-|
口④②口 |--④-|
口口口口 |⑤---|
44
口口口口 |----|
口口口口 |①---|
口口②口 |②---|
口①③① |③---|
45
口口口口 |①---|
口①②① |----|
口口口口 |----|
口口口口 |--②-|
46
口口口口 |①---|
口②口② |②-③-|
口④①口 |--④-|
口⑤③口 |⑤---|
47
③口口③ |①---|
①口①口 |----|
②②②② |②---|
口口口口 |--③-|
48
口①口口 |①-②-|
口④④口 |③-④-|
⑤⑥⑥⑤ |--⑤-|
②口③② |⑥---|
49
①⑤⑦① |①---|
①④⑥① |②-③-|
口口口口 |④-⑤-|
口②③口 |⑥-⑦-|
50
①④⑥① |①---|
口③⑤口 |--②-|
口口口口 |③-④-|
②口口② |⑤-⑥-|
51
①口口① |①---|
口口⑤口 |--②-|
②③④口 |③-④-|
口口⑥口 |⑤-⑥-|
52
口①口口 |--①-|
口②⑦③ |②-③-|
口⑥④口 |④-⑤-|
⑤口口口 |⑥-⑦-|
53
①④⑥① |①---|
口③⑤口 |--②-|
口口口口 |③-④-|
口②②口 |⑤-⑥-|
54
①④⑥① |①---|
口③⑤口 |--②-|
口口口口 |③-④-|
②口口② |⑤-⑥-|
55
①口口① |①---|
口口⑤口 |--②-|
②③④口 |③-④-|
口口⑥口 |⑤-⑥-|
56
口①口口 |--①-|
口②⑦③ |②-③-|
口⑥④口 |④-⑤-|
⑤口口口 |⑥-⑦-|
57
①④⑥① |①---|
口③⑤口 |--②-|
口口口口 |③-④-|
口②②口 |⑤-⑥-|
58
①④⑥① |①---|
口③⑤口 |--②-|
口口口口 |③-④-|
②口口② |⑤-⑥-|
59
①口⑥① |①---|
口口口口 |--②-|
②③④口 |③-④-|
口口⑤口 |⑤-⑥-|
60
口①口口 |--①-|
口②⑦③ |②-③-|
口⑥④口 |④-⑤-|
⑤口口口 |⑥-⑦-|
61
①①①① |①---|
口口口② |--②-|
口口③⑥ |③-④-|
口口⑤④ |⑤-⑥-|
62
口口口口 |①---|
口口①口 |②---|
②②⑤④ |③---|
③③口口 |④-⑤-|
63
③口③口 |①---|
口①口口 |--②-|
口②口口 |③---|
口口口口 |----|
64
口口口口 |----|
口口口口 |----|
①②口口 |----|
口口口口 |①-②-|
65
口口口口 |①---|
口口①口 |--②-|
口口②口
口口口口

口③口③
口④④口
口口口口 |③---|
口口口口 |--④-|
66
⑥口口⑥ |①---|
②口口口 |--②-|
⑤③口⑤ |③-④-|
④①①口 |⑤-⑥-|
67
口口口口 |①---|
③②②③ |--②-|
口口口口 |③---|
口①①口 |----|

不確定度: 0

最終更新:2014年08月01日 01:36