Pink Rose
Kiyommy+Seiya

BASIC

Level: 3
BPM: 116-146
Notes: 217

BPM: 132
1
口口口口 |----|
口口口口 |----|
口口口口 |----|
口口口口 |----|
2
口口口口 |①---|
口口口口 |----|
口口口口 |----|
口①①口 |----|
3
口口口口 |①---|
口口②口 |----|
口①口口 |②---|
口口口口 |----|
4
口口③口 |①---|
口②口口 |----|
口口①口 |②---|
口口口口 |③---|
5
口①口口 |①---|
口口口口 |----|
口口口口 |----|
口口口口 |----|
6
口口口口 |①---|
①②口① |----|
口口③口 |②---|
口口口口 |③---|
7
口口口口 |①---|
口②口口 |----|
口①口口 |②---|
口口口口 |----|
8
口口口口 |①---|
①③口① |----|
口口②口 |②---|
口口口口 |③---|

BPM: 125
9
口口口口 |①---|
口口①口 |②---|
口②口口
口口口口

BPM: 120

口口口口
口口口口
③口口③ |③---|
口口口口

BPM: 116

口口口口
④口口④
口口口口
口口口口 |④---|
10
①口口① |①---|
口口口口 |----|
口口口口 |----|
口口口口 |----|

BPM: 146
11
口口口口 |----|
口口口口 |----|
口口口口 |----|
口口口口 |----|
12
口口口口 |①---|
口口口口 |----|
①口②口 |②---|
口③口口 |③---|
13
口口口口 |①---|
口口口口 |----|
口①口② |②---|
口口口口 |----|
14
口口口口 |①---|
口③②口 |②---|
口口①口 |----|
口口口口 |③---|
15
口①口口 |①---|
口口②口 |②---|
口③口口 |③---|
口口④口 |④---|
16
口口口口 |①---|
口口口口 |----|
①口②口 |②---|
口③口口 |③---|
17
口口口口 |①---|
口口口口 |----|
口①口② |②---|
口口口口 |----|
18
口口口口 |①---|
口③②口 |②---|
口口①口 |----|
口口口口 |③---|
19
口①口口 |①---|
口口③口 |②---|
口②口口 |③---|
口口④口 |④---|
20
口②口口 |①---|
口口口口 |----|
口口口口 |----|
口①口口 |②---|
21
口口口口 |①---|
口①口口 |②---|
口②口口 |③---|
口③口口 |----|
22
口口口口 |①---|
②口口② |----|
①口口① |②---|
口口口口 |----|
23
口口口口 |①---|
口口①口 |②---|
口口②口 |③---|
口口③口 |----|
24
口口口口 |①---|
③①①③ |----|
口②②口 |②---|
口口口口 |③---|
25
口口口口 |①---|
口②②口 |----|
①③口① |②---|
口口口口 |③---|
26
口口口口 |①---|
口口口口 |②---|
口口③口 |③---|
口②①口 |----|
27
口口口口 |----|
口口口口 |----|
口口口口 |----|
口口口口 |----|
28
口口②口 |①---|
口口口口 |----|
口口口口 |----|
口口①口 |②---|
29
口口口口 |①---|
口口①口 |②---|
口口②口 |③---|
口口③口 |----|
30
口口口口 |①---|
②口口② |----|
①口口① |②---|
口口口口 |----|
31
口口口口 |①---|
口①口口 |②---|
口②口口 |③---|
口③口口 |----|
32
口口口口 |①---|
③①①③ |----|
口②②口 |②---|
口口口口 |③---|
33
口口口口 |①---|
口②②口 |----|
①口③① |②---|
口口口口 |③---|
34
口口②口 |①---|
口③口口 |----|
口口口口 |②---|
口①口口 |③---|
35
口口口口 |①---|
口口口口 |②---|
口口①口 |----|
口②口口 |----|
36
口口口口 |----|
口口口口 |----|
口口口口 |----|
口口口口 |----|
37
口①口口 |①---|
口②①口 |----|
口口口口 |②---|
口口口口 |----|
38
④口口④ |①---|
③口口③ |②---|
②口①② |③---|
口口口口 |④---|
39
口口口口 |①---|
口口口口 |----|
口①②口 |②---|
口②①口 |----|
40
口口口口 |①---|
口口口口 |②---|
①口口② |----|
口口口口 |----|
41
口口口口 |①---|
①②口口 |----|
口③口口 |②---|
口口口口 |③---|
42
口口口口 |①---|
口口③口 |----|
口口②① |②---|
口口口口 |③---|
43
口口④口 |①---|
口口③口 |②---|
口②口口 |③---|
口①口口 |④---|
44
①口口① |①---|
口口口口 |----|
口口口口 |----|
口口口口 |----|
45
口①①口 |----|
口口口口 |----|
口口口口 |①---|
口②②口 |②---|
46
口口口口 |①---|
口口口口 |----|
①口口① |----|
口口口口 |----|
47
口口口口 |①---|
口口②口 |----|
口①口口 |②---|
口口口③ |③---|
48
②口口③ |①---|
口口口口 |----|
口口①口 |②---|
口口口口 |③---|
49
口①①口 |①---|
②口口② |----|
口口口口 |----|
口口口口 |②---|
50
口口口口 |①---|
口口口口 |----|
②口口② |②---|
①③口① |③---|
51
口口口口 |①---|
口口口口 |----|
口③③口 |②---|
②口①② |③---|
52
口口口口 |①---|
口口口口 |----|
①口口①
口口口口

口口口口
口口口口
③②②③ |②---|
口口口口 |③---|
53
②③③② |①---|
①口口① |②---|
口口口口 |③---|
口④④口 |④---|
54
口口口口 |①---|
口口口口 |----|
①口口① |----|
口口口口 |----|
55
口口口口 |①---|
口口②口 |----|
口①口口 |②---|
口口口③ |③---|
56
③口口④ |①---|
口②口口 |②---|
口口①口 |③---|
口口口口 |④---|
57
口①①口 |①---|
②口口② |----|
口口口口 |----|
口口口口 |②---|
58
口口口口 |①---|
口口口口 |----|
②口口② |②---|
①③口① |③---|
59
口口口口 |①---|
口口口口 |----|
口③③口 |②---|
②口①② |③---|
60
口口口口 |①---|
口口口口 |----|
①口口①
口口口口

口口口口
口口口口
③②②③ |②---|
口口口口 |③---|
61
②口口② |①---|
①④④① |②---|
口③③口 |③---|
口口口口 |④---|
62
①口口① |①---|
口口口口 |----|
口口口口 |----|
口口口口 |----|
63
口①口口 |①---|
口口③口 |②---|
口②口口 |③---|
口口④口 |④---|
64
口口口口 |①---|
口口口口 |----|
口口口口 |----|
①口口① |----|


不確定度: 0

最終更新:2013年03月29日 20:57