Pink Rose
Kiyommy+Seiya

ADVANCED

Level: 6
BPM: 116-146
Notes: 333

BPM: 132
1
口口①口 |----|
口②口口 |----|
口口③口 |①-②-|
口④口口 |③-④-|
2
口口口口 |①---|
口口口口 |----|
①口口①
口口口口

口口口口
口口口口
②口口口 |----|
口口②口 |--②-|
3
口口口口 |①---|
口口③口 |②-③-|
口①口②
口②口口

口口口口
口口口口
口⑤口口 |----|
口口④口 |④-⑤-|
4
③口口⑦ |①---|
②口①⑥ |②-③-|
口口口⑤ |④-⑤-|
①口口④ |⑥-⑦-|
5
①口口① |----|
口口口口 |----|
口口口口 |----|
口口口口 |①---|
6
②口口口 |①---|
口③口口 |--②-|
①口④① |③-④-|
⑥口口⑤ |⑤-⑥-|
7
①口口① |①---|
口②②⑥ |②-③-|
⑤③③口 |--④-|
口口口④ |⑤-⑥-|
8
口①①口 |----|
口口④口 |--①-|
口③口口 |--②-|
口口②口 |③-④-|

BPM: 125
9
口①①口 |①---|
②口口② |②---|
口口口口
口口口口

BPM: 120

口口口口
口口口口
口口口口 |③---|
口③③口

BPM: 116

口口口口
口口口口
④口口④
口口口口 |④---|
10
①①①① |①---|
口口口口 |----|
口口口口 |----|
口口口口 |----|

BPM: 146
11
口口口口 |----|
口口口口 |----|
口口口口 |----|
口口口口 |----|
12
③口口口 |①-②-|
⑤②口④ |③-④-|
口⑥口口 |----|
①口④口 |⑤-⑥-|
13
口口口口 |----|
③口⑤口 |①-②-|
口④口① |--③-|
口口②口 |④-⑤-|
14
②口②口 |--①-|
口①口① |②---|
口口口口 |----|
口口口口 |----|
15
口口口① |①---|
②口①③ |②---|
④②③口 |③---|
口④口口 |④---|
16
④口口③ |①-②-|
口口②⑤ |③-④-|
口④⑥口 |----|
口口口① |⑤-⑥-|
17
口口口口 |----|
口⑤口③ |①-②-|
①口④口 |--③-|
口②口口 |④-⑤-|
18
口②③② |--①-|
①口①口 |②---|
口口口口 |----|
口口口口 |--③-|
19
①口口口 |①---|
③①口② |②---|
口③②④ |③---|
口口④口 |④---|
20
口口口口 |①---|
口口④口 |----|
①③①口 |--②-|
②口口口 |③-④-|
21
口口口口 |①---|
③①口② |②-③-|
口口④口 |----|
口口③口 |④---|
22
口口①口 |①---|
口口口口 |②-③-|
口②⑤口 |--④-|
口③口④ |--⑤-|
23
口口口口 |①---|
口口口口 |②-③-|
口口口口 |----|
②③①口 |----|
24
口口口③ |①---|
口口口② |②-③-|
口口口④ |----|
口口口① |④---|
25
④口口③ |①---|
口④口② |②-③-|
口口口口 |----|
口口口① |④---|
26
口口口口 |①---|
口口①口 |②-③-|
③口②口 |----|
口③口口 |----|
27
口口口口 |----|
口口口口 |----|
口口口口 |----|
口口口口 |----|
28
口口口口 |①---|
口④口口 |----|
口①③① |--②-|
口口口② |③-④-|
29
口口口口 |①---|
②口①③ |②-③-|
口④口口 |----|
口③口口 |④---|
30
口①口口 |①---|
口口口口 |②-③-|
口⑤②口 |--④-|
④口③口 |--⑤-|
31
口口口口 |①---|
口口④口 |②-③-|
口⑤口口 |----|
口①③② |④-⑤-|
32
④口口口 |①-②-|
③口口⑤ |③-④-|
②口⑥口 |----|
①口口口 |⑤-⑥-|
33
口④口⑤ |①-②-|
口③⑤口 |③-④-|
口②⑥口 |--⑤-|
口①口口 |--⑥-|
34
①口口口 |----|
②口④口 |----|
③口口口 |①-②-|
口口口口 |③-④-|
35
口口口口 |--①-|
口口口① |②---|
口口口口 |----|
口口口② |----|
36
口口口口 |----|
口口口口 |----|
口口口口 |----|
口口口口 |----|
37
口①①口 |①---|
口③④口 |----|
口②②口 |②---|
口③④口 |③-④-|
38
口口口① |----|
口口口② |①---|
口口口③ |②---|
口口口口 |③---|
39
口口口口 |①---|
口口③口 |----|
①②口口 |②---|
口①口④ |③-④-|
40
②口口口 |--①-|
口①口口 |②---|
口口口口 |----|
口口口口 |----|
41
口口③口 |①---|
口口②口 |②-③-|
口口④口 |--④-|
口口①口 |----|
42
口口③口 |①---|
口口②口 |②-③-|
口口④口 |--④-|
口口①口 |----|
43
⑤①口⑤ |①---|
口④口口 |②-③-|
口②口口 |--④-|
口③口口 |--⑤-|
44
口口口口 |----|
口口口口 |----|
口口口口 |----|
口口口口 |----|
45
口口口① |----|
③口①口 |----|
口③②口 |①-②-|
口④口口 |③-④-|
46
口口口口 |①---|
②口口口 |----|
①口口① |----|
口口口口 |--②-|
47
口口口口 |①---|
口口口③ |②-③-|
①口⑤② |----|
口④口口 |④-⑤-|
48
②①③② |①---|
口口口口 |②-③-|
⑥④口⑥ |--④-|
口口⑤口 |⑤-⑥-|
49
口口口口 |----|
①口口① |----|
口口口口 |----|
口口口口 |①---|
50
口口口口 |①---|
口③口口 |②-③-|
①④⑤① |--④-|
口②⑥口 |⑤-⑥-|
51
口⑥⑥口 |①---|
⑤口口⑤ |②-③-|
②④④② |--④-|
③①口③ |⑤-⑥-|
52
①口口① |----|
口②②口 |--①-|
③口⑤③ |②-③-|
口④口口 |④-⑤-|
53
口②②口 |①---|
①口口① |②---|
口口口口
口口口口

③口口口
口③口⑤
口④⑤口 |③-④-|
口口⑥口 |⑤-⑥-|
54
口口口口 |①---|
口口口② |----|
①口口① |----|
口口口口 |--②-|
55
口口口口 |①---|
③口口口 |②-③-|
②⑤口① |----|
口口④口 |④-⑤-|
56
②③①② |①---|
口口口口 |②-③-|
⑥口④⑥ |--④-|
口⑤口口 |⑤-⑥-|
57
口口口口 |----|
①口口① |----|
口口口口 |----|
口口口口 |①---|
58
口口口口 |①---|
口②③口 |--②-|
①⑤④① |③-④-|
口⑥口口 |⑤-⑥-|
59
口⑥⑥口 |①---|
⑤口口⑤ |②-③-|
②④④② |--④-|
③口①③ |⑤-⑥-|
60
①口口① |----|
口②②口 |--①-|
③④口③ |--②-|
口口口口 |③-④-|
61
②口口② |①---|
①口口① |②---|
口口口口
口口口口

口口口口
④口口口
口④口③ |③---|
口口③口 |④---|
62
①①①① |①---|
口口口口 |----|
口口口口 |----|
口口口口 |----|
63
口口口① |①---|
②口①③ |②---|
④②③口 |③---|
口④口口 |④---|
64
口口口口 |①---|
口口口口 |----|
口口口口 |----|
①口口① |----|


不確定度: 0

最終更新:2013年03月29日 20:57