Pink Rose
Kiyommy+Seiya

EXTREME

Level: 8
BPM: 116-146
Notes: 605

BPM: 132
1
口口①口 |----|
口②口口 |----|
口口③口 |①-②-|
口④口口 |③-④-|
2
口④口口 |①-②-|
口③口口 |③-④-|
①②口①
口口口口

口口口口
口口⑤口
⑦口⑥口 |--⑤-|
口口⑦口 |⑥-⑦-|
3
口口口口 |①---|
口口③口 |②-③-|
口①口②
口②口口

口口口口
口口口口
口⑤口口 |----|
口口④口 |④-⑤-|
4
④口口口 |①-②-|
③口①口 |③-④-|
②口③口
①④口口

口口口⑧
口口⑦⑦
口⑥口⑥ |⑤-⑥-|
口口口⑤ |⑦-⑧-|
5
口⑤⑤口 |①-②-|
口口口口 |③-④-|
④口②口 |----|
口①口③ |⑤---|
6
③口口口 |①---|
口口口② |②-③-|
口①①口
口口口口

口口口口
口④口口
⑤口⑤④ |④-⑤-|
⑦⑥口⑥ |⑥-⑦-|
7
①口口① |①---|
⑤②③⑤ |②-③-|
⑥③②⑥ |--④-|
④口口④ |⑤-⑥-|
8
①口口① |----|
口③③口 |--①-|
②口口② |--②-|
④口口④ |③-④-|

BPM: 125
9
口①①口 |①---|
②口口② |②---|
口①①口
口口口口

BPM: 120

口口口口
口③③口
口口口口 |③---|
口③③口

BPM: 116

口口口口
口口口口
④口口④
口口口口 |④---|
10
口①①口 |①---|
口口口口 |----|
口①①口 |----|
口口口口 |----|

BPM: 146
11
口口口口 |----|
口口口口 |----|
口口口口 |----|
口口口口 |----|
12
④口口③ |①-②-|
口口口口 |③-④-|
③②④②
①口口①

口口口口
口⑤口口
口口口口 |----|
⑥口⑥⑤ |⑤-⑥-|
13
④③③④ |①-②-|
②口⑤口 |③-④-|
⑥①口⑥ |--⑤-|
口口⑦口 |⑥-⑦-|
14
口①口口 |--①-|
②口口② |②---|
口①口口
口口口口

口口口口
口口口口
口⑤④③ |③---|
口④⑤口 |④-⑤-|
15
口③②口 |①---|
⑤②③⑤ |②---|
①④口口 |③-④-|
口⑤⑤口 |⑤---|
16
③口口④ |①-②-|
口口口口 |③-④-|
②④②③
①口口①

口口口口
口口⑤口
口口口口 |----|
⑤⑥口⑥ |⑤-⑥-|
17
④③③④ |①-②-|
口⑤口② |③-④-|
⑥口①⑥ |--⑤-|
口⑦口口 |⑥-⑦-|
18
口口①口 |--①-|
②口口② |②---|
口口①口
口口口口

口口口口
口⑥口口
③④⑤口 |③---|
口⑤④口 |④-⑤⑥|
19
②③①④ |①-②-|
口口⑤口 |③-④-|
口⑥口口 |⑤-⑥-|
⑦口口⑧ |⑦-⑧-|
20
口口①口 |①-②-|
口③⑤② |----|
④口①口 |--③-|
口③⑤口 |④-⑤-|
21
口②口口 |①---|
③④口④ |②-③-|
口②①② |----|
口④口④ |④---|
22
①②①② |①---|
③口③口 |②-③-|
①②①②
③口③口

口口口口
口④口④
⑤口口口 |--④-|
口④口④ |--⑤-|
23
口口口口 |①---|
口口口口 |②-③-|
口②③① |----|
口③②口 |----|
24
口口口口 |①---|
④口③④ |②-③-|
②口口② |----|
口口口① |④---|
25
③口口③ |①---|
口口口④ |②-③-|
口②②口 |----|
①口口口 |④---|
26
④②③⑤ |①---|
①③②口 |②-③-|
口⑥口口 |④--⑤|
口口口口 |--⑥-|
27
口口口口 |①--②|
口③①① |--③-|
口口口口
口口②口

口口口⑦
口口⑥口
④⑤口口 |④-⑤-|
⑤④口口 |⑥-⑦-|
28
口口①口 |①-②-|
口③⑤② |----|
④口①口 |--③-|
口③⑤口 |④-⑤-|
29
口②口口 |①---|
③④口④ |②-③-|
口②①② |----|
口④口④ |④---|
30
①②①② |①---|
③口③口 |②-③-|
①②①②
③口③口

口口口口
口④口④
⑤口口口 |--④-|
口④口④ |--⑤-|
31
口口口口 |①---|
④口口⑤ |②-③-|
口②③① |----|
④③②口 |④-⑤-|
32
口口口口 |①-②-|
口口④口 |③-④-|
③口口③
口口②①

口口口口
⑥口口⑤
口口口口 |----|
口口口⑤ |⑤-⑥-|
33
口口口口 |①-②-|
⑥④口⑤ |③-④-|
③口口③ |--⑤-|
①②口口 |--⑥-|
34
③口口① |----|
口②④口 |----|
③口口① |①-②-|
口口口口 |③-④-|
35
④口口口 |--①-|
③⑥口口 |②-③-|
口①②口 |④--⑤|
⑤②①口 |--⑥-|
36
⑬⑨⑤① |①②③④|
⑭⑩⑥② |⑤⑥⑦⑧|
⑮⑪⑦③ |⑨⑩⑪⑫|
⑯⑫⑧④ |⑬⑭⑮⑯|
37
口③⑤① |①-②-|
⑥④①⑥ |③-④-|
口⑤⑦② |⑤-⑥-|
⑧口口⑧ |⑦-⑧-|
38
②口②口 |----|
③②①③ |①---|
②①②① |②---|
口口①口 |③---|
39
口口口① |①-②-|
口口①口 |③-④-|
④口口②
口口口③

口⑦⑧口
⑥⑧⑦⑥
口口口口 |⑤-⑥-|
⑤口口口 |⑦-⑧-|
40
③口口⑤ |--①-|
⑦口口口 |②-③-|
口①②④ |④-⑤-|
⑥②①口 |⑥-⑦-|
41
口④④口 |①---|
口口口① |②-③-|
口口②③ |--④-|
口口口① |----|
42
口④④口 |①---|
①口口口 |②-③-|
③②口口 |--④-|
①口口口 |----|
43
口③③口 |①---|
口①①口 |②-③-|
②③③②
口①①口

口口口口
④⑤⑤④
口口口口 |--④-|
口⑤⑤口 |--⑤-|
44
②④⑥⑧ |①-②-|
口口口口 |③-④-|
①③⑤⑦ |⑤-⑥-|
口口口口 |⑦-⑧-|
45
①⑤口口 |①②③④|
②⑥口口 |⑤⑥⑦⑧|
③⑦口口
④⑧口口

⑪口⑫口
⑫口⑪口
口口⑨⑩ |⑨-⑩-|
口口⑩⑨ |⑪-⑫-|
46
口口口口 |①-②-|
口①口① |③-④-|
②口口④
③口口口

口口⑥口
口口⑦口
⑧口口口 |⑤-⑥-|
口口⑧⑤ |⑦-⑧-|
47
口口口口 |①---|
口口口口 |②-③-|
口①③②
口②口口

口口口口
口口口口
口⑤口口 |----|
口口④口 |④-⑤-|
48
④口口口 |①-②-|
③口①口 |③-④-|
②口③口
①④口口

口口口⑧
口口⑦⑦
口⑥口⑥ |⑤-⑥-|
口口口⑤ |⑦-⑧-|
49
口⑦⑦口 |①-②-|
口⑤口口 |③-④-|
①⑥③口 |⑤-⑥-|
②口④口 |⑦---|
50
口口口口 |①---|
口口口② |②-③-|
口③口口
①口口①

口口口口
⑤④⑤口
口口口④ |④-⑤-|
⑦⑥口⑥ |⑥-⑦-|
51
①口口① |①---|
⑤②③⑤ |②-③-|
⑥③②⑥ |--④-|
④口口④ |⑤-⑥-|
52
口口口口 |----|
④②②④ |--①-|
⑤③③⑤ |②-③-|
④①①④ |④-⑤-|
53
①②①② |①---|
口口口口 |②---|
口口口口
口口口口

⑤口⑥口
⑥口⑤口
口口③④ |③-④-|
口口④③ |⑤-⑥-|
54
口口口口 |①-②-|
口①口① |③-④-|
②口口④
③口口口

口口⑥口
口口⑦口
⑧口口口 |⑤-⑥-|
口口⑧⑤ |⑦-⑧-|
55
口口口口 |①---|
口口口口 |②-③-|
口①③②
口②口口

口口口口
口口口口
口⑤口口 |----|
口口④口 |④-⑤-|
56
④口口口 |①-②-|
③口①口 |③-④-|
②口③口
①④口口

口口口⑧
口口⑦⑦
口⑥口⑥ |⑤-⑥-|
口口口⑤ |⑦-⑧-|
57
口⑦⑦口 |①-②-|
口⑤口口 |③-④-|
①⑥③口 |⑤-⑥-|
②口④口 |⑦---|
58
口口口口 |①---|
口口口口 |--②-|
口②口口
①口口①

口口口口
④③④口
口口口③ |③-④-|
⑥⑤口⑤ |⑤-⑥-|
59
①口口① |①---|
⑤②③⑤ |②-③-|
⑥③②⑥ |--④-|
④口口④ |⑤-⑥-|
60
①口口① |----|
口③③口 |--①-|
②口口② |--②-|
④口口④ |③-④-|
61
口①①口 |①---|
②③③② |②---|
④①①④ |③---|
口③③口 |④---|
62
④①①② |①-②-|
口口口③ |③-④-|
口①①口
口口口口

口口口口
⑤口口口
口口⑧⑥ |⑤-⑥-|
口口口⑦ |⑦-⑧-|
63
口口②口 |①---|
口②口口 |②---|
①口口口
口口①口

口③口口
④口③④
口口⑤口 |③---|
口④④口 |④-⑤-|
64
口口口口 |①---|
口口口口 |----|
口口口口 |----|
①口口① |----|


不確定度: 0

最終更新:2013年03月29日 20:57