HEAT-BIT-HIT-BEAT
V.C.O.

EXTREME

Level: 10
BPM: 180
Notes: 918

1
口口口口 |----|
口口口口 |----|
口口口口 |----|
口口口口 |----|
2
口口口口 |----|
口口口口 |----|
口口口口 |----|
口口口口
3
口④①口 |①---|
①⑤②④ |②---|
②口口⑤ |③-④-|
③口口③ |--⑤-|
4
②口口① |--①-|
③口口③ |②---|
口①②口 |③---|
③口口③
5
口⑤④口 |①---|
④①②⑤ |②---|
②口口① |③-④-|
口③③口 |--⑤-|
6
①口口① |--①-|
口②②口 |②---|
③口口③ |③---|
②③③②
7
④口①⑤ |①---|
①⑤④② |②---|
口②口口 |③-④-|
③口口③ |--⑤-|
8
口②②口 |--①-|
①口口口 |②-③-|
④口①④ |④---|
③④④③
9
②④⑤① |①---|
⑤口口④ |②---|
口①②口 |③-④-|
③口口③ |--⑤-|
10
口口口口 |--①-|
口②①口 |②-③-|
①④④② |④---|
③④④③
11
口④①口 |①---|
①⑤②④ |②---|
②口口⑤ |③-④-|
③口口③ |--⑤-|
12
②口口① |--①-|
③口口③ |②---|
口①②口 |③---|
③口口③
13
口⑤④口 |①---|
④①②⑤ |②---|
②口口① |③-④-|
口③③口 |--⑤-|
14
①口口① |--①-|
口②②口 |②---|
③口口③ |③---|
②③③②
15
④口①⑤ |①---|
①⑤④② |②---|
口②口口 |③-④-|
③口口③ |--⑤-|
16
口②②口 |--①-|
①口口口 |②-③-|
④口①④ |④---|
③④④③
17
口口口① |①---|
②口①口 |②---|
④②口③ |--③-|
口④③口 |--④-|
18
⑦①④⑥ |①②③④|
⑤⑨⑩⑧ |⑤⑥⑦⑧|
口③②口 |--⑨⑩|
口口口口
19
⑦④⑤⑥ |①-②-|
口口口⑥ |③-④-|
①口③口 |⑤-⑥-|
①②③⑧ |⑦-⑧-|
20
口口口口 |①-②-|
⑤②④口 |③-④-|
①③②⑥ |⑤-⑥-|
③⑤口口
21
口③②① |①-②-|
⑧③口① |③-④-|
口⑥口⑦ |⑤-⑥-|
口⑥⑤④ |⑦-⑧-|
22
②口③① |①-②-|
口②口③ |③-④-|
⑥口⑤口 |⑤-⑥-|
④口口⑤
23
⑤③④口 |①-②-|
③⑤②④ |③---|
口①⑥② |④-⑤-|
口⑥①口 |⑥---|
24
⑤口口④ |①-②-|
③口④口 |③-④-|
①③口② |--⑤-|
①口②口
25
口⑤③④ |①-②-|
⑤②④③ |③---|
②⑥①口 |④-⑤-|
口①⑥口 |⑥---|
26
③口②④ |①-②-|
⑤③④② |③-④-|
口口①⑤ |--⑤-|
口①口口
27
⑦④⑤⑥ |①-②-|
口口口⑥ |③-④-|
①口③口 |⑤-⑥-|
①②③⑧ |⑦-⑧-|
28
口口口口 |①-②-|
⑤②④口 |③-④-|
①③②⑥ |⑤-⑥-|
③⑤口口
29
口③②① |①-②-|
⑧③口① |③-④-|
口⑥口⑦ |⑤-⑥-|
口⑥⑤④ |⑦-⑧-|
30
②口③① |①-②-|
口②口③ |③-④-|
⑥口⑤口 |⑤-⑥-|
④口口⑤
31
⑤③④口 |①-②-|
③⑤②④ |③---|
口①⑥② |④-⑤-|
口⑥①口 |⑥---|
32
⑤③口① |①-②-|
③口①口 |③-④-|
口④口② |--⑤-|
④口②口
33
口⑤③④ |①-②-|
⑤②④③ |③---|
②⑥①口 |④-⑤-|
口①⑥口 |⑥---|
34
②口③口 |①-②-|
口②⑤③ |③-④-|
①⑤④④ |--⑤-|
①口口口
35
口⑦口⑥ |①②③-|
⑤口口⑧ |④-⑤-|
口⑨口口 |⑥-⑦-|
④①②③ |⑧-⑨-|
36
口口口④ |①-②-|
⑤③口口 |③-④-|
②口口⑥ |⑤-⑥-|
口口①口
37
⑤口口⑧ |①②③-|
⑨口口⑥ |④-⑤-|
④口⑦口 |⑥-⑦-|
口①②③ |⑧-⑨-|
38
口口④⑥ |①-②-|
口③口口 |③-④-|
口口⑤② |⑤-⑥-|
口口口①
39
⑥口口口 |①②③-|
口⑨⑤口 |④-⑤-|
④口⑧⑦ |⑥-⑦-|
口①②③ |⑧-⑨-|
40
④⑤口口 |①-②-|
口口③口 |③-④-|
口①⑥口 |⑤-⑥-|
②口口口
41
口口⑦⑤ |①②③-|
口口⑨口 |④-⑤-|
口⑥口⑧ |⑥-⑦-|
④①②③ |⑧-⑨-|
42
①⑤⑥④ |①-②-|
③⑦⑧口 |③-④-|
②口口口 |⑤⑥⑦⑧|
口口口口
43
⑤口口口 |①②③-|
口口口口 |④-⑤-|
④①口口
④①②③

口⑦⑧⑥
口口口⑧
口⑨口口 |⑥-⑦-|
口口口口 |⑧-⑨-|
44
③⑤口④ |①-②-|
⑤③⑥口 |③-④-|
②口①⑥ |⑤-⑥-|
口口①口
45
⑤⑨口⑧ |①②③-|
⑨口口⑥ |④-⑤-|
④①⑦口 |⑥-⑦-|
④①②③ |⑧-⑨-|
46
③口④⑥ |①-②-|
口③②⑤ |③-④-|
口口⑤② |⑤-⑥-|
口口口①
47
⑥口口口 |①②③-|
口⑨⑤⑧ |④-⑤-|
④①⑧⑦ |⑥-⑦-|
④①②③ |⑧-⑨-|
48
④⑤口③ |①-②-|
⑤口③⑥ |③-④-|
口①⑥口 |⑤-⑥-|
②口①口
49
口口⑦⑤ |①②③-|
口⑦⑨口 |④-⑤-|
④⑥口⑧ |⑥-⑦-|
④①②③ |⑧-⑨-|
50
口③口④ |①-②-|
口口口口 |③-④-|
⑤口②⑥ |⑤⑥⑦⑧|
⑦①口⑧
51
④④口口 |①②--|
①⑤口② |③---|
口⑥⑥口 |④-⑤-|
口③③口 |⑥---|
52
④④口口 |①-②-|
⑤口①① |③-④-|
⑥⑥口② |⑤-⑥-|
口口③③
53
④④①① |①-②-|
口②⑤口 |③---|
⑥⑥③③ |④-⑤-|
口口口口 |⑥---|
54
口④①口 |①-②-|
④②口① |③-④-|
口⑦⑥③ |⑤⑥⑦-|
口⑤③口
55
①口口② |①②--|
口口口口 |③---|
③⑥口④ |④-⑤-|
③⑥⑤④ |⑥---|
56
①②③口 |①-②-|
①口③口 |③-④-|
口⑥口④ |⑤-⑥-|
口⑥⑤④
57
口③口① |①-②-|
口③⑤① |③---|
口⑥②④ |④-⑤-|
口⑥口④ |⑥---|
58
④口①⑤ |①②③-|
口②口口 |④-⑤-|
口⑧③⑦ |⑥⑦⑧-|
⑥口口口
59
④④口口 |①②--|
①⑤口② |③---|
口⑥⑥口 |④-⑤-|
口③③口 |⑥---|
60
④④口口 |①-②-|
⑤口①① |③-④-|
⑥⑥口② |⑤-⑥-|
口口③③
61
④④①① |①-②-|
口②⑤口 |③---|
⑥⑥③③ |④-⑤-|
口口口口 |⑥---|
62
口④①口 |①-②-|
④②口① |③-④-|
口⑦⑥③ |⑤⑥⑦-|
口⑤③口
63
①口口② |①②--|
口口口口 |③---|
③⑥口④ |④-⑤-|
③⑥⑤④ |⑥---|
64
①②③口 |①-②-|
①口③口 |③-④-|
口⑥口④ |⑤-⑥-|
口⑥⑤④
65
口③口① |①-②-|
口③⑤① |③---|
口⑥②④ |④-⑤-|
口⑥口④ |⑥---|
66
⑤口口④ |①②③-|
①口口⑧ |④-⑤-|
口⑦②口 |⑥⑦⑧-|
③口口⑥
67
⑤④口口 |①-②-|
⑦①②口 |③-④-|
口口口口 |⑤-⑥-|
⑥⑧③口 |⑦-⑧-|
68
口⑥⑤① |①②③-|
口口④② |④-⑤-|
口口口口 |⑥-⑦-|
⑦口③口
69
①口口③ |①-②-|
⑦④⑤口 |③-④-|
口口口口 |⑤-⑥-|
口⑥⑧② |⑦-⑧-|
70
⑥⑥⑤④ |①②③-|
口⑤口① |④-⑤-|
口口④② |⑥-⑦-|
③口口⑦
71
口口口口 |①②③-|
⑧口⑥⑤ |④-⑤-|
④①口口 |⑥-⑦-|
⑦②③⑨ |⑧-⑨-|
72
口⑥⑤口 |①②③-|
口④口口 |④-⑤-|
口①口口 |⑥-⑦-|
⑦②③口
73
①口口③ |①-②-|
口⑤④口 |③-④-|
口⑧⑦口 |⑤-⑥-|
口口⑥② |⑦-⑧-|
74
⑧⑤口⑧ |①②③-|
口口④口 |④-⑤-|
①口口口 |⑥⑦⑧-|
②⑦⑥③
75
④口①口 |----|
②③④① |①---|
③①③② |②-③-|
①口口③ |--④-|
76
口口①口 |--①-|
口口口③ |--②-|
③①③② |③---|
②③口口
77
③④②口 |①---|
④①⑤④ |②---|
口②④③ |③-④-|
口⑤口① |--⑤-|
78
口口③② |--①-|
③口口③ |--②-|
②③口口 |③---|
①口口①
79
⑤④口口 |①-②-|
⑦①②口 |③-④-|
口口口口 |⑤-⑥-|
⑥⑧③口 |⑦-⑧-|
80
口⑥⑤① |①②③-|
口口④② |④-⑤-|
口口口口 |⑥-⑦-|
⑦口③口
81
①口口③ |①-②-|
⑦④⑤口 |③-④-|
口口口口 |⑤-⑥-|
口⑥⑧② |⑦-⑧-|
82
⑥⑥⑤④ |①②③-|
口⑤口① |④-⑤-|
口口④② |⑥-⑦-|
③口口⑦
83
口口口口 |①②③-|
⑧口⑥⑤ |④-⑤-|
④①口口 |⑥-⑦-|
⑦②③⑨ |⑧-⑨-|
84
口⑥⑤口 |①②③-|
口④口口 |④-⑤-|
口①口口 |⑥-⑦-|
⑦②③口
85
①口口③ |①-②-|
口⑤④口 |③-④-|
口⑧⑦口 |⑤-⑥-|
口口⑥② |⑦-⑧-|
86
口⑥⑦口 |①②③-|
口口⑤口 |④-⑤-|
①口口④ |⑥-⑦-|
②口口③
87
口口口口 |①---|
①口口① |②---|
口②口口
口口②口

④口口③
口④口⑤
⑤口④口 |③-④-|
③口口④ |--⑤-|
88
口②口③ |--①-|
①口③口 |--②-|
口③口① |③---|
③口②口
89
口④③⑤ |①---|
④②口① |②---|
①⑤②④ |③-④-|
口③④口 |--⑤-|
90
②口③口 |--①-|
口口口③ |--②-|
③口①口 |③---|
①③口②
91
⑤④口口 |①-②-|
⑦①②口 |③-④-|
口口口口 |⑤-⑥-|
⑥⑧③口 |⑦-⑧-|
92
口⑥⑤① |①②③-|
口口④② |④-⑤-|
口口口口 |⑥-⑦-|
⑦口③口
93
①口口③ |①-②-|
⑦④⑤口 |③-④-|
口口口口 |⑤-⑥-|
口⑥⑧② |⑦-⑧-|
94
⑥⑥⑤④ |①②③-|
口⑤口① |④-⑤-|
口口④② |⑥-⑦-|
③口口⑦
95
口口口口 |①②③-|
⑧口⑥⑤ |④-⑤-|
④①口口 |⑥-⑦-|
⑦②③⑨ |⑧-⑨-|
96
口⑥⑤口 |①②③-|
口④口口 |④-⑤-|
口①口口 |⑥-⑦-|
⑦②③口
97
①口口③ |①-②-|
口⑤④口 |③-④-|
口⑧⑦口 |⑤-⑥-|
口口⑥② |⑦-⑧-|
98
口口⑥口 |①②③-|
⑤⑦④⑦ |④-⑤-|
①口口⑥ |⑥-⑦-|
②口口③
99
②②口③ |①---|
口口③口 |②-③-|
⑤①①⑤ |④---|
⑥④④⑥ |⑤-⑥-|
100
⑤③③⑤ |①②--|
①⑤⑤① |③-④-|
口②②口 |⑤---|
口④④口


不確定度: 0

タグ:

+ タグ編集
  • タグ:

このサイトはreCAPTCHAによって保護されており、Googleの プライバシーポリシー利用規約 が適用されます。

最終更新:2013年03月29日 20:29