LANA - キロクノカケラ -
TOMOSUKE×Jazzin'park

ADVANCED

Level: 6
BPM: 84-168
Notes: 372

實際BPM: 168
1
口口口口 |----|
口口口口 |----|
口口口口 |----|
口口口口 |----|
2
口口口口 |----|
口口口口 |----|
口口口口 |----|
口口口口 |----|
3
⑤①口口 |①-②-|
口口②口 |③-④-|
口③口口 |--⑤-|
口口④口 |----|
4
④④①① |--①-|
口口⑦⑦ |②-③-|
②②⑤⑤ |④-⑤-|
⑥⑥③③ |⑥-⑦-|
5
口口口口 |----|
口口口口 |----|
口口口口 |----|
口口口口 |----|
6
口口口口 |①---|
口①①口 |----|
口②②口 |②---|
口口口口 |----|
7
口口①⑤ |①-②-|
口②口口 |③-④-|
口口③口 |--⑤-|
口④口口 |----|
8
③③④④ |--①-|
⑤⑤②② |②-③-|
①①⑥⑥ |④-⑤-|
⑦⑦口口 |⑥-⑦-|
9
口口口口 |----|
口口口口 |----|
口口口口 |----|
口口口口 |----|
10
口口口口 |①---|
口①①口 |----|
③②②④ |②---|
口口口口 |③-④-|
11
口③②口 |①---|
①口口口 |②-③-|
口口口口 |----|
口口口口 |----|
12
①口口② |----|
口口口口 |----|
口口口口 |----|
口口口口 |①-②-|
13
口口口口 |①---|
口①口口 |②-③-|
口③②口 |--④-|
口⑤④口 |⑤---|
14
口口口口 |----|
口口口口 |----|
口口口口 |----|
①口口② |①-②-|
15
口口口口 |①---|
口③②口 |②-③-|
①口口口 |----|
口口口口 |----|
16
口口口口 |----|
口口口口 |----|
口①①口 |----|
口口口口 |①---|
17
①口口① |①---|
②口口② |--②-|
③口口③ |--③-|
口④④口 |--④-|
18
口口口口 |--①-|
口①①口 |----|
口口口口 |----|
口口口口 |----|
19
①口口② |①---|
口口口口 |②---|
口③④口 |③-④-|
口⑤⑥口 |⑤-⑥-|
20
①口口口 |----|
口口口口 |----|
口口口口 |----|
口口口口 |--①-|
21
口口口① |①---|
口②②口 |--②-|
口③④口 |--③-|
口⑤口口 |④-⑤-|
22
口②③口 |--①-|
口口口口 |----|
口口口口 |----|
口口口① |②-③-|
23
口口口口 |①---|
口①口② |--②-|
口③④口 |----|
口口口口 |③-④-|
24
口口口口 |①---|
口口口口 |--②-|
③口口口 |----|
口①口② |--③-|
25
口③③口 |①-②-|
②口口口 |--③-|
口口口①
口口口口

口口口口
口④④口
⑤口口⑤ |--④-|
口口口口 |--⑤-|
26
口口口口 |--①-|
口口口口 |②---|
口口口口 |----|
口①②口 |----|
27
口口口口 |①---|
口口口口 |--②-|
②口口② |----|
口①①口 |----|
28
口口口口 |----|
口口口口 |----|
口口口口 |----|
口口口口 |----|
29
口①①口 |①---|
②口口② |--②-|
口口口口 |----|
口口口口 |----|
30
口口口口 |----|
口口口口 |----|
口口口口 |----|
口口口口 |----|
31
口口口口 |①---|
口口口口 |--②-|
②口口② |----|
口①①口 |----|
32
口口口口 |----|
口口口口 |----|
口口口口 |----|
口口口口 |----|
33
口①①口 |①---|
②口口② |--②-|
口口口口 |----|
口口口口 |----|
34
口口口口 |----|
口口口口 |----|
①口口② |----|
口口口口 |①-②-|
35
口③②口 |①---|
①口口口 |②-③-|
口口口口 |----|
口口口口 |----|
36
①口口② |----|
口口口口 |----|
口口口口 |----|
口口口口 |①-②-|
37
口口口口 |①---|
口①口口 |②-③-|
口③②口 |--④-|
口⑤④口 |⑤---|
38
口口口口 |----|
口口口口 |----|
口口口口 |----|
①口口② |①-②-|
39
口口口口 |①---|
口③②口 |②-③-|
①口口口 |----|
口口口口 |----|
40
口口口口 |----|
口口口口 |----|
口①①口 |----|
口口口口 |①---|
41
①口口① |①---|
②口口② |--②-|
③口口③ |--③-|
口④④口 |--④-|
42
口口口口 |--①-|
口①①口 |----|
口口口口 |----|
口口口口 |----|
43
①口口② |①---|
口口口口 |②---|
口③④口 |③-④-|
⑤口口口 |--⑤-|
44
①口口口 |----|
口口口口 |----|
口口口口 |----|
口口口口 |--①-|
45
口口口① |①---|
口②②口 |--②-|
口③④口 |--③-|
口⑤口口 |④-⑤-|
46
口②③口 |--①-|
口口口口 |----|
口口口口 |----|
口口口① |②-③-|
47
口口口口 |①---|
口①口② |--②-|
口③④口 |----|
口口口口 |③-④-|
48
口口口口 |①---|
口口口口 |--②-|
口口口口 |----|
口①口② |----|
49
口③③口 |①-②-|
②④④① |--③-|
⑤口口⑤ |--④-|
口口口口 |--⑤-|
50
口口口口 |--①-|
口口口口 |②---|
口口口口 |----|
口①②口 |----|
51
①⑤⑤① |①---|
②口口② |②---|
口③④口 |③-④-|
口口口口 |--⑤-|
52
口口口口 |--①-|
口①①口 |--②-|
②口口② |--③-|
口③③口 |----|
53
⑤①①⑤ |①---|
口②②口 |②---|
③口口④ |③-④-|
口口口口 |--⑤-|
54
口口口口 |--①-|
①⑤口① |--②-|
③②②④ |--③-|
口口口口 |④-⑤-|
55
①⑤⑤① |①---|
②口口② |②---|
口③④口 |③-④-|
口口口口 |--⑤-|
56
口口口口 |--①-|
口①①口 |--②-|
②口口② |--③-|
口③③口 |----|
57
⑤①①⑤ |①---|
口②②口 |②---|
③口口④ |③-④-|
口口口口 |--⑤-|
58
口口口口 |--①-|
①⑤口① |--②-|
③②②④ |--③-|
口口口口 |④-⑤-|
59
口②口① |①---|
口口口口 |--②-|
口口口口
口口口口

⑤口③⑤
口④口口
口口口口 |③-④-|
口口口口 |--⑤-|
60
口口口口 |--①-|
①口口① |--②-|
②口口② |----|
口③口口 |--③-|
61
口口口口 |①---|
⑤④口⑤ |--②-|
口②③口 |③-④-|
口口①口 |--⑤-|
62
口口口口 |--①-|
口⑤口口 |--②-|
①口④① |--③-|
②③口② |④-⑤-|
63
口②①口 |①-②-|
⑧口③口 |③-④-|
口④口⑦ |⑤-⑥-|
⑥口⑤口 |⑦-⑧-|
64
口②①口 |--①-|
口口口口 |②---|
口口口口 |----|
口口口口 |----|
65
③①①③ |①---|
口口口口 |--②-|
②口口② |----|
口口口口 |--③-|
66
口口口口 |--①-|
③③口口 |②-③-|
口口②② |----|
①①口口 |----|
67
口口口① |----|
口口②① |①---|
口③②口 |②---|
口③口口 |③---|
68
②②③③ |①---|
①口口口 |----|
①口口口 |②---|
口口口口 |③---|
69
口口口口 |①---|
口口口口 |----|
①①②② |----|
口口口口 |②---|
70
①①口口 |①---|
口口口口 |----|
③③口口 |②---|
②②口口 |③---|
71
①①口口 |①---|
口口口口 |----|
口口③③ |②---|
口口②② |③---|
72
口口①① |①---|
②②口口 |②---|
口口③③ |③---|
④④口口 |④---|
73
口②②口 |①---|
口口口口 |----|
口口口口 |----|
口口①① |②---|
74
口②②口 |①---|
口③口口 |----|
①口④① |②---|
口口口口 |③-④-|
75
口②口口 |①---|
口口③口 |----|
口④口口 |②-③-|
口①⑤口 |④-⑤-|
76
②口口② |①---|
口口口口 |----|
口口口口 |----|
口①口口 |②---|
77
口口④口 |①---|
口③②口 |②---|
①②③① |③---|
口④口口 |④---|
78
②①口② |①---|
口口口口 |----|
③口口③ |②---|
口口①口 |③---|
79
口口口口 |①---|
口口口② |----|
②口口口 |----|
口①①口 |②---|
80
②口口口 |①---|
①③口口 |②---|
口口③① |----|
口口口② |③---|
81
口口口口 |①---|
②口①② |----|
口①口口 |②---|
口口口口 |----|
82
口口口口 |①---|
口口口口 |----|
口口口口 |----|
口①①口 |----|

不確定度: 0

最終更新:2014年08月01日 00:37