LANA - キロクノカケラ -
TOMOSUKE×Jazzin'park

BASIC

Level: 3
BPM: 84-168
Notes: 188

實際BPM: 168
1
口口口口 |----|
口口口口 |----|
口口口口 |----|
口口口口 |----|
2
口口口口 |----|
口口口口 |----|
口口口口 |----|
口口口口 |----|
3
口口口口 |①---|
口①①口 |----|
口①①口 |----|
口口口口 |----|
4
口①①口 |--①-|
口口口口 |----|
②口口② |----|
口口口口 |--②-|
5
口口口口 |----|
口口口口 |----|
口口口口 |----|
口口口口 |----|
6
口口口口 |----|
口口口口 |----|
口口口口 |----|
口口口口 |----|
7
口口口口 |①---|
口①①口 |----|
口①①口 |----|
口口口口 |----|
8
口①①口 |--①-|
②口口② |----|
口口口口 |----|
口口口口 |--②-|
9
口口口口 |----|
口口口口 |----|
口口口口 |----|
口口口口 |----|
10
口口口口 |----|
①口口口 |----|
口口口口 |----|
口口口口 |①---|
11
口口口口 |①---|
口①②口 |②---|
口口口口 |----|
口口口口 |----|
12
口口口口 |----|
口口口口 |----|
口口口① |----|
口口口口 |①---|
13
口口口口 |①---|
口口④口 |②---|
③②①口 |③---|
口口口口 |④---|
14
口口口口 |①---|
口①口口 |----|
口口口口 |----|
②口口口 |②---|
15
口口口口 |①---|
口口口口 |②---|
口口口口 |----|
口①②口 |----|
16
口口口口 |----|
口口口口 |----|
口口口口 |----|
口口口口 |----|
17
口口口口 |①---|
口①①口 |----|
口口口口 |----|
口口口口 |----|
18
①口口① |①---|
口口口口 |----|
口口口口 |----|
口口口口 |----|
19
口口口口 |①---|
④③②① |②---|
口口口口 |③---|
口口口口 |④---|
20
口口口口 |----|
口口口口 |----|
口口口口 |----|
口口口口 |----|
21
①②③④ |①---|
口口口口 |②---|
口口口口 |③---|
口口口口 |④---|
22
口口口口 |①---|
口①②口 |②---|
口口口口 |----|
口口口口 |----|
23
口口口口 |①---|
①①口口 |----|
口口口口 |----|
口口口口 |----|
24
口口口口 |①---|
口口①① |----|
口口口口 |----|
口口口口 |----|
25
口口口口 |①---|
口口口口 |----|
①①口口 |----|
口口口口 |----|
26
口口口口 |①---|
口口口口 |----|
口口①① |----|
口口口口 |----|
27
口口口口 |①---|
口口口口 |----|
口①①口 |----|
口①①口 |----|
28
口口口口 |----|
口口口口 |----|
口口口口 |----|
口口口口 |----|
29
口口口口 |①---|
①口口① |----|
①口口① |----|
口口口口 |----|
30
口口口口 |----|
口口口口 |----|
口口口口 |----|
口口口口 |----|
31
口①①口 |①---|
口①①口 |----|
口口口口 |----|
口口口口 |----|
32
口口口口 |----|
口口口口 |----|
口口口口 |----|
口口口口 |----|
33
①口口① |①---|
①口口① |----|
口口口口 |----|
口口口口 |----|
34
口口口口 |----|
①口口口 |----|
口口口口 |----|
口口口口 |①---|
35
口口口口 |①---|
口①②口 |②---|
口口口口 |----|
口口口口 |----|
36
口口口口 |----|
口口口口 |----|
口口口① |----|
口口口口 |①---|
37
口口口口 |①---|
口口④口 |②---|
③②①口 |③---|
口口口口 |④---|
38
口口口口 |①---|
口①口口 |----|
口口口口 |----|
②口口口 |②---|
39
口口口口 |①---|
口口口口 |②---|
口口口口 |----|
口①②口 |----|
40
口口口口 |----|
口口口口 |----|
口口口口 |----|
口口口口 |----|
41
口口口口 |①---|
口①①口 |----|
口口口口 |----|
口口口口 |----|
42
①口口① |①---|
口口口口 |----|
口口口口 |----|
口口口口 |----|
43
口口口口 |①---|
④③②① |②---|
口口口口 |③---|
口口口口 |④---|
44
口口口口 |----|
口口口口 |----|
口口口口 |----|
口口口口 |----|
45
①②③④ |①---|
口口口口 |②---|
口口口口 |③---|
口口口口 |④---|
46
口口口口 |①---|
口①②口 |②---|
口口口口 |----|
口口口口 |----|
47
口口口口 |①---|
①①口口 |----|
口口口口 |----|
口口口口 |----|
48
口口口口 |①---|
口口①① |----|
口口口口 |----|
口口口口 |----|
49
口口口口 |①---|
口口口口 |----|
①①口口 |----|
口口口口 |----|
50
口口口口 |①---|
口口口口 |----|
口口①① |----|
口口口口 |----|
51
①口口① |①---|
口口口口 |----|
口口口口 |----|
口口口口 |----|
52
口口口口 |①---|
口①①口 |----|
口口口口 |----|
口口口口 |----|
53
①口口① |①---|
口口口口 |----|
口口口口 |----|
口口口口 |----|
54
口口口口 |①---|
口口口口 |----|
口①①口 |----|
口口口口 |----|
55
①口口① |①---|
口口口口 |----|
口口口口 |----|
口口口口 |----|
56
口口口口 |①---|
口口口口 |----|
口口口口 |----|
口①①口 |----|
57
①口口① |①---|
口口口口 |----|
口口口口 |----|
口口口口 |----|
58
口口口口 |①---|
口口口口 |----|
口口口口 |----|
①口口① |----|
59
口①①口 |①---|
口②②口 |----|
口口口口 |②---|
口口口口 |----|
60
口口口口 |①---|
口口口口 |②---|
①②③口 |③---|
口口口口 |----|
61
口①①口 |①---|
口②②口 |----|
口口口口 |②---|
口口口口 |----|
62
口口口口 |①---|
口口口口 |②---|
④③②① |③---|
口口口口 |④---|
63
口口口口 |①---|
口口口口 |----|
口口口口 |----|
口①①口 |----|
64
口口口口 |①---|
口口口口 |----|
口①①口 |----|
口口口口 |----|
65
口口口口 |①---|
口①①口 |----|
口口口口 |----|
口口口口 |----|
66
①口口① |①---|
口口口口 |----|
口口口口 |----|
口口口口 |----|
67
口口口口 |----|
口口口口 |①---|
口③口口 |②---|
口①②口 |③---|
68
口④口口 |①---|
口②③口 |②---|
口口①口 |③---|
口口口口 |④---|
69
口口①口 |①---|
口口口口 |----|
口口口口 |----|
口口口口 |----|
70
①口口① |①---|
口口口口 |----|
口②②口 |②---|
口口口口 |----|
71
②口口② |①---|
①口口① |----|
口口口口 |②---|
口口口口 |----|
72
口①②口 |①---|
口③④口 |②---|
口口口口 |③---|
口口口口 |④---|
73
口口口口 |①---|
口口口口 |----|
口①口口 |----|
口口口口 |----|
74
口口②② |①---|
口口口口 |----|
口口口口 |②---|
口①①口 |----|
75
②②口口 |①---|
口口①① |----|
口口口口 |②---|
口口口口 |----|
76
口口口口 |①---|
①①口口 |----|
口口口口 |----|
口②口口 |②---|
77
口口口口 |①---|
口④口口 |②---|
口②③口 |③---|
口口①口 |④---|
78
②③口口 |①---|
口口①口 |----|
口口口口 |②---|
口口口口 |③---|
79
口口①口 |①---|
口口口② |----|
口口口口 |----|
口口口口 |②---|
80
口口口口 |①---|
口②①口 |②---|
口口③口 |----|
口口口口 |③---|
81
口口口口 |①---|
口口口口 |----|
②①口② |②---|
口口口口 |----|
82
口口口口 |①---|
口口口口 |----|
口口口口 |----|
①口口① |----|

不確定度: 0

最終更新:2014年08月01日 00:36