Cassis
肥塚良彦

BASIC

Level: 3
BPM: 176
Notes: 210

1
口口口口 |----|
口口口口 |----|
口口口口 |----|
口口口口 |----|
2
口口口口 |①---|
②口口② |----|
口①①口 |----|
口口口口 |②---|
3
口口口口 |----|
口①①口 |----|
口口口口 |①---|
口口口口 |----|
4
口口口口 |①---|
①口口② |----|
口口口口 |②---|
口口口口 |----|
5
口口口口 |①---|
口口口口 |----|
①口口② |②---|
口口口口 |----|
6
口口口口 |①---|
②口口② |----|
口①①口 |----|
口口口口 |②---|
7
口口口口 |----|
口①①口 |----|
口口口口 |①---|
口口口口 |----|
8
口口口口 |①---|
②口口② |----|
①口口① |②---|
口口口口 |----|
9
①口口① |①---|
口口口口 |----|
口口口口 |----|
口口口口 |----|
10
口口口口 |①---|
②口口② |----|
口①①口 |----|
口口口口 |②---|
11
口口口口 |----|
口①①口 |----|
口口口口 |①---|
口口口口 |----|
12
口口口口 |①---|
①口口② |----|
口口口口 |②---|
口口口口 |----|
13
口口口口 |①---|
口口口口 |----|
①口口② |②---|
口口口口 |----|
14
口口口口 |①---|
②口口② |----|
口①①口 |----|
口口口口 |②---|
15
口口口口 |----|
口①①口 |----|
口口口口 |①---|
口口口口 |----|
16
口口口口 |①---|
②口口② |----|
①口口① |②---|
口口口口 |----|
17
①口口① |①---|
口口口口 |----|
口②口口 |----|
口口口口 |--②-|
18
口口口口 |----|
口口口口 |--①-|
口口口② |----|
口口①口 |--②-|
19
口口口口 |----|
口口②① |--①-|
口口口口 |----|
口口口口 |--②-|
20
口口口口 |----|
②①口口 |--①-|
口口口口 |----|
口口口口 |--②-|
21
口口口口 |----|
口口口口 |----|
口①口口 |----|
口口口口 |--①-|
22
口口口口 |----|
口口口口 |--①-|
口口口② |----|
口口①口 |--②-|
23
口口②口 |----|
口口口① |--①-|
口口口口 |----|
口口口口 |--②-|
24
②①口口 |----|
口口口口 |--①-|
口口口口 |----|
口口口口 |--②-|
25
口口口口 |----|
口口口口 |----|
口口口口 |----|
口口口口 |----|
26
口口口口 |①---|
②口口② |----|
口①①口 |----|
口口口口 |②---|
27
口口口口 |----|
口①①口 |----|
口口口口 |①---|
口口口口 |----|
28
口口口口 |①---|
①口口② |----|
口口口口 |②---|
口口口口 |----|
29
口口口口 |①---|
口口口口 |----|
①口口② |②---|
口口口口 |----|
30
口口口口 |①---|
②口口② |----|
口①①口 |----|
口口口口 |②---|
31
口口口口 |----|
口①①口 |----|
口口口口 |①---|
口口口口 |----|
32
口口口口 |①---|
②口口② |----|
①口口① |②---|
口口口口 |----|
33
①口口① |①---|
口口口口 |----|
口②口口 |----|
口口口口 |--②-|
34
口口口口 |----|
口口口口 |--①-|
口口口② |----|
口口①口 |--②-|
35
口口口口 |----|
口口②① |--①-|
口口口口 |----|
口口口口 |--②-|
36
口口口口 |----|
②①口口 |--①-|
口口口口 |----|
口口口口 |--②-|
37
口口口口 |----|
口口口口 |----|
口①口口 |----|
口口口口 |--①-|
38
口口口口 |----|
口口口口 |--①-|
口口口② |----|
口口①口 |--②-|
39
口口②口 |----|
口口口① |--①-|
口口口口 |----|
口口口口 |--②-|
40
②①口口 |----|
口口口口 |--①-|
口口口口 |----|
口口口口 |--②-|
41
口口口口 |----|
口口口口 |----|
口①①口 |----|
口口口口 |--①-|
42
口口口口 |----|
口口口口 |----|
口口口口 |----|
口口口口 |----|
43
口口口口 |①---|
①口口① |----|
口口口口 |----|
口口口口 |----|
44
口口口口 |①---|
口①①口 |----|
口口口口 |----|
口口口口 |----|
45
口①①口 |①---|
口口口口 |----|
口口口口 |----|
口口口口 |----|
46
①口口① |①---|
口口口口 |----|
口口口口 |----|
口口口口 |----|
47
口口口口 |①---|
口①①口 |----|
口口口口 |----|
口口口口 |----|
48
口口口口 |①---|
②口口② |----|
①口口① |②---|
口口口口 |----|
49
①口口① |①---|
口口口口 |----|
口口口口 |----|
口口口口 |----|
50
①口口① |①---|
②口口② |----|
口口口口 |----|
口口口口 |②---|
51
口口口口 |----|
口口口口 |----|
口口口口 |----|
口口口口 |----|
52
①口口① |①---|
②口口② |----|
口口口口 |----|
口口口口 |②---|
53
口口口口 |----|
口口口口 |----|
口口口口 |----|
口口口口 |----|
54
口①①口 |①---|
口②②口 |----|
口口口口 |----|
口口口口 |②---|
55
①口口① |----|
②口口② |----|
口口口口 |①---|
口口口口 |--②-|
56
口口口口 |----|
口口口口 |①---|
①②②① |--②-|
口②②口 |----|
57
①口口口 |----|
口口口口 |----|
口口口口 |----|
口口口口 |--①-|
58
口口口口 |----|
口口口口 |----|
口口口口 |----|
口口口口 |----|
59
口口口① |①---|
口口口口 |----|
口口口口 |----|
口口口口 |----|
60
口口口口 |①---|
口①①口 |----|
口口口口 |----|
口口口口 |----|
61
口①①口 |①---|
口口口口 |----|
口口口口 |----|
口口口口 |----|
62
口口口口 |①---|
口口口口 |----|
口①①口 |----|
口口口口 |----|
63
口口口口 |①---|
口①①口 |----|
口口口口 |----|
口口口口 |----|
64
口口口口 |①---|
口②②口 |----|
①口口① |②---|
口口口口 |----|
65
①口口① |①---|
口口口口 |----|
口口口口 |----|
口口口口 |----|
66
口①①口 |①---|
口②②口 |②---|
③口口口 |③---|
口口口口 |----|
67
口口口口 |----|
口口口口 |----|
口口口口 |①---|
口①①口 |----|
68
口①①口 |①---|
口②②口 |②---|
口口口③ |③---|
口口口口 |----|
69
口口口口 |--①-|
口口口口 |----|
①口口② |--②-|
口口口口 |----|
70
口口口口 |①---|
口口②① |----|
口口口口 |②---|
口口口口 |----|
71
口口口口 |①---|
②①口口 |----|
口口口口 |②---|
口口口口 |----|
72
口口口口 |①---|
口口口口 |----|
①②口口 |②---|
口口口口 |----|
73
口口口口 |①---|
口口口口 |----|
口口①② |②---|
口口口口 |----|
74
①口口① |①---|
②口口② |--②-|
③口口③ |----|
口口口口 |③---|
75
口口口口 |--①-|
口口口口 |----|
口口口口 |----|
①口口① |----|
76
①口口① |①---|
②口口② |--②-|
③口口③ |----|
口口口口 |③---|
77
口口口口 |--①-|
口口口口 |----|
口口口口 |----|
①口口① |----|
78
口口口口 |①---|
②口口② |----|
口①①口 |----|
口口口口 |②---|
79
口口口口 |----|
口①①口 |----|
口口口口 |①---|
口口口口 |----|
80
口口口口 |①---|
①口口② |----|
口口口口 |②---|
口口口口 |----|
81
口口口口 |①---|
口口口口 |----|
①口口② |②---|
口口口口 |----|
82
口口口口 |①---|
②口口② |----|
口①①口 |----|
口口口口 |②---|
83
口口口口 |----|
口①①口 |----|
口口口口 |①---|
口口口口 |----|
84
口口口口 |①---|
②口口② |----|
①口口① |②---|
口口口口 |----|
85
①口口① |①---|
口口口口 |----|
口口口口 |----|
口口口口 |----|


不確定度: 0

最終更新:2013年02月26日 21:42