Cassis
肥塚良彦

ADVANCED

Level: 6
BPM: 176
Notes: 497

1
口口口口 |----|
口口口口 |----|
口口口口 |----|
口口口口 |----|
2
口口口口 |①-②-|
①②④③ |--③-|
⑤⑥口口 |④---|
口口口口 |⑤-⑥-|
3
③④口⑤ |--①-|
口口口口 |②---|
口口②① |③-④-|
口口口口 |--⑤-|
4
口口①口 |①---|
口⑥⑦口 |②-③-|
②③④⑤ |④-⑤-|
口口口口 |⑥-⑦-|
5
①②③④ |①-②-|
口口口口 |③-④-|
口口口口 |--⑤-|
⑤口口⑥ |⑥---|
6
口口口口 |①-②-|
①②④③ |--③-|
⑤⑥口口 |④---|
口口口口 |⑤-⑥-|
7
③④口⑤ |--①-|
口口口口 |②---|
口口②① |③-④-|
口口口口 |--⑤-|
8
⑦口①⑦ |①---|
⑥口口⑥ |②-③-|
②③④⑤ |④-⑤-|
口口口口 |⑥-⑦-|
9
口口口口 |----|
口口口口 |----|
口口口口 |----|
口口口口 |----|
10
口口口口 |①-②-|
①②④③ |--③-|
⑤⑥口口 |④---|
口口口口 |⑤-⑥-|
11
③④口⑤ |--①-|
口口口口 |②---|
口口②① |③-④-|
口口口口 |--⑤-|
12
口口①口 |①---|
口⑥⑦口 |②-③-|
②③④⑤ |④-⑤-|
口口口口 |⑥-⑦-|
13
①②③④ |①-②-|
口口口口 |③-④-|
口口口口 |--⑤-|
⑤口口⑥ |⑥---|
14
口口口口 |①-②-|
①②④③ |--③-|
⑤⑥口口 |④---|
口口口口 |⑤-⑥-|
15
③④口⑤ |--①-|
口口口口 |②---|
口口②① |③-④-|
口口口口 |--⑤-|
16
⑦口①⑦ |①---|
⑥口口⑥ |②-③-|
②③④⑤ |④-⑤-|
口口口口 |⑥-⑦-|
17
口口口口 |----|
①②③口 |----|
口口口口 |--①-|
口口口口 |②-③-|
18
口①②口 |----|
口口口口 |①-②-|
③④⑤口 |--③-|
口口口口 |④-⑤-|
19
口⑥⑤④ |--①-|
口③②① |②-③-|
口口口口 |--④-|
口口口口 |⑤-⑥-|
20
口口口口 |--①-|
口③②① |②-③-|
口⑥⑤④ |--④-|
口口口口 |⑤-⑥-|
21
口口口口 |----|
①②③口 |----|
口口口口 |--①-|
口口口口 |②-③-|
22
口①②口 |----|
口口口口 |①-②-|
③④⑤口 |--③-|
口口口口 |④-⑤-|
23
口⑥⑤④ |--①-|
口③②① |②-③-|
口口口口 |--④-|
口口口口 |⑤-⑥-|
24
⑥口口口 |--①-|
⑤③②① |②-③-|
④口口口 |--④-|
口口口口 |⑤-⑥-|
25
口口口口 |----|
口口口口 |----|
口口口口 |----|
口口口口 |----|
26
口口口口 |①-②-|
①②④③ |--③-|
⑤⑥口口 |④---|
口口口口 |⑤-⑥-|
27
③④口⑤ |--①-|
口口口口 |②---|
口口②① |③-④-|
口口口口 |--⑤-|
28
口口①口 |①---|
口⑥⑦口 |②-③-|
②③④⑤ |④-⑤-|
口口口口 |⑥-⑦-|
29
①②③④ |①-②-|
口口口口 |③-④-|
口口口口 |--⑤-|
⑤口口⑥ |⑥---|
30
口口口口 |①-②-|
①②④③ |--③-|
⑤⑥口口 |④---|
口口口口 |⑤-⑥-|
31
③④口⑤ |--①-|
口口口口 |②---|
口口②① |③-④-|
口口口口 |--⑤-|
32
⑦口①⑦ |①---|
⑥口口⑥ |②-③-|
②③④⑤ |④-⑤-|
口口口口 |⑥-⑦-|
33
口口口口 |----|
①②③口 |----|
口口口口 |--①-|
口口口口 |②-③-|
34
口①②口 |----|
口口口口 |①-②-|
③④⑤口 |--③-|
口口口口 |④-⑤-|
35
口⑥⑤④ |--①-|
口③②① |②-③-|
口口口口 |--④-|
口口口口 |⑤-⑥-|
36
口口口口 |--①-|
口③②① |②-③-|
口⑥⑤④ |--④-|
口口口口 |⑤-⑥-|
37
口口口口 |----|
①②③口 |----|
口口口口 |--①-|
口口口口 |②-③-|
38
口①②口 |----|
口口口口 |①-②-|
③④⑤口 |--③-|
口口口口 |④-⑤-|
39
口⑥⑤④ |--①-|
口③②① |②-③-|
口口口口 |--④-|
口口口口 |⑤-⑥-|
40
⑥口口口 |--①-|
⑤③②① |②-③-|
④口口口 |--④-|
口口口口 |⑤-⑥-|
41
口口口口 |----|
口口口口 |----|
①②口③ |①-②-|
口口口口 |--③-|
42
③口②① |----|
口口口④ |①-②-|
口口口口 |--③-|
口口口口 |--④-|
43
口口口口 |--①-|
①口口口 |--②-|
④③口② |--③-|
口口口口 |④---|
44
⑥③②口 |①---|
⑤口口口 |②-③-|
④口口口 |--④-|
①口口① |⑤-⑥-|
45
口口口③ |--①-|
口口口② |②-③-|
口口口① |----|
口口口口 |----|
46
口⑤口口 |①-②-|
①⑥口② |③-④-|
③⑦口④ |--⑤-|
口口口口 |⑥-⑦-|
47
⑥口①口 |--①-|
④口②⑤ |②-③-|
口口③口 |--④-|
口口口口 |⑤-⑥-|
48
口③④① |①---|
口⑤⑥口 |--②-|
口口口口 |③-④-|
口②②口 |⑤-⑥-|
49
①口口口 |--①-|
②口口④ |②-③-|
③口口⑤ |--④-|
口口口口 |⑤---|
50
口①②口 |①-②-|
③口口④ |--③-|
口⑤⑥口 |--④-|
口口口口 |⑤-⑥-|
51
口口口口 |--①-|
口①②口 |②---|
口口口口 |③-④-|
口③④⑤ |⑤---|
52
口①②口 |①-②-|
③口口④ |--③-|
口⑤⑥口 |--④-|
口口口口 |⑤-⑥-|
53
口口口口 |--①-|
口①②口 |②---|
口口口口 |③-④-|
口③④⑤ |⑤---|
54
⑤①①⑤ |①--②|
口③③口 |--③-|
⑥②②⑥ |-④--|
口④④口 |⑤--⑥|
55
口口口口 |--①-|
①口口① |-②--|
口口口口
②口口②

⑥⑤③④
口口⑦⑧
口口口口 |③④-⑤|
口口口口 |⑥-⑦⑧|
56
口口口口 |-①②-|
②①口口 |③④-⑤|
口⑤③④
口口口口

⑦⑧⑨⑩
⑫⑪口口
⑥口口口 |⑥-⑦⑧|
口口口口 |⑨⑩⑪⑫|
57
③口口③ |----|
口口口口 |----|
口口口口 |①-②-|
口①②口 |--③-|
58
口口口口 |----|
口①②口 |①-②-|
③口口④ |--③-|
口口口口 |--④-|
59
①口口② |--①-|
口③④口 |--②-|
口口口口 |--③-|
口口口口 |④---|
60
④⑤⑥口 |①---|
口口口口 |②-③-|
口②③口 |--④-|
①口口① |⑤-⑥-|
61
口口口口 |--①-|
口③②① |②-③-|
口口口口 |----|
口口口口 |----|
62
口口口口 |①-②-|
⑤⑥⑦口 |③-④-|
①②③④ |--⑤-|
口口口口 |⑥-⑦-|
63
①②③口 |--①-|
口⑥⑤④ |②-③-|
口口口口 |--④-|
口口口口 |⑤-⑥-|
64
⑤口口⑥ |①---|
①口口口 |--②-|
③口口④ |③-④-|
口②②口 |⑤-⑥-|
65
口口口口 |----|
口口口口 |----|
口口口口 |----|
口口口口 |----|
66
口①①口 |①---|
③④⑤口 |②---|
口②②口 |③-④-|
口口口口 |⑤---|
67
口口口口 |--①-|
④⑤⑥⑦ |②-③-|
口口口口 |④-⑤-|
口①②③ |⑥-⑦-|
68
口①①口 |①---|
③④⑤口 |②---|
口②②口 |③-④-|
口口口口 |⑤---|
69
口③②① |--①-|
口口口口 |②-③-|
④⑤⑥口 |--④-|
口口口口 |⑤-⑥-|
70
①口④口 |①-②-|
⑦③口⑥ |③-④-|
口口⑧② |⑤-⑥-|
⑤口口口 |⑦-⑧-|
71
口①⑧口 |①-②-|
⑦③口⑥ |③-④-|
⑤口口② |⑤-⑥-|
口口口④ |⑦-⑧-|
72
③口口口 |①-②-|
口⑦②⑧ |③-④-|
⑤①口④ |⑤-⑥-|
口口⑥口 |⑦-⑧-|
73
口⑦口② |①-②-|
③口④口 |③-④-|
口⑤口⑥ |⑤-⑥-|
口①⑧口 |⑦-⑧-|
74
②⑥⑥② |①-②-|
口④④口 |--③-|
口③③口 |④---|
①⑤⑤① |⑤-⑥-|
75
口口口口 |--①-|
②口口② |②---|
①口口① |----|
口口口口 |----|
76
②⑥⑥② |①-②-|
口④④口 |--③-|
口③③口 |④---|
①⑤⑤① |⑤-⑥-|
77
②口口② |--①-|
口口口口 |②---|
口口口口 |----|
①口口① |----|
78
口口口口 |①-②-|
①②④③ |--③-|
⑤⑥口口 |④---|
口口口口 |⑤-⑥-|
79
③④口⑤ |--①-|
口口口口 |②---|
口口②① |③-④-|
口口口口 |--⑤-|
80
口口①口 |①---|
口⑥⑦口 |②-③-|
②③④⑤ |④-⑤-|
口口口口 |⑥-⑦-|
81
①②③④ |①-②-|
口口口口 |③-④-|
口口口口 |--⑤-|
⑤口口⑥ |⑥---|
82
口口口口 |①-②-|
①②④③ |--③-|
⑤⑥口口 |④---|
口口口口 |⑤-⑥-|
83
③④口⑤ |--①-|
口口口口 |②---|
口口②① |③-④-|
口口口口 |--⑤-|
84
⑦口①⑦ |①---|
⑥口口⑥ |②-③-|
②③④⑤ |④-⑤-|
口口口口 |⑥-⑦-|
85
口①①口 |①---②-|
口②②口 |--③---|
口③③口 |----|
口口口口 |----|


不確定度: 0

最終更新:2013年02月26日 21:41