Cassis
肥塚良彦

EXTREME

Level: 8
BPM: 176
Notes: 660

1
口口口口 |----|
口口口口 |----|
口口口口 |----|
口口口口 |----|
2
口②④口 |①-②-|
③⑥口① |--③-|
口口⑤口 |④---|
口口口口 |⑤-⑥-|
3
口④口口 |--①-|
⑤口②③ |②---|
口①口口 |③-④-|
口口口口 |--⑤-|
4
⑤口①③ |①---|
口⑦口口 |②-③-|
④口口② |④-⑤-|
口口⑥口 |⑥-⑦-|
5
⑥口口⑤ |①-②-|
口口口口 |③-④-|
口④②口 |--⑤-|
③口口① |⑥---|
6
口②④口 |①-②-|
③⑥口① |--③-|
口口⑤口 |④---|
口口口口 |⑤-⑥-|
7
口④口口 |--①-|
⑤口②③ |②---|
口①口口 |③-④-|
口口口口 |--⑤-|
8
⑤口①③ |①---|
⑦⑦⑦⑦ |②-③-|
④口口② |④-⑤-|
口⑥⑥口 |⑥-⑦-|
9
口口口口 |----|
口口口口 |----|
口口口口 |----|
口口口口 |----|
10
口②④⑤ |①-②-|
③⑥口① |--③-|
口口⑤口 |④---|
口③①口 |⑤-⑥-|
11
①④口口 |--①-|
⑤口②③ |②---|
口①口口 |③-④-|
口⑤③口 |--⑤-|
12
⑤口①③ |①---|
口⑦⑦口 |②-③-|
④口口② |④-⑤-|
口⑥⑥口 |⑥-⑦-|
13
⑥口口⑤ |①-②-|
③口口① |③-④-|
口④②口 |--⑤-|
③口口① |⑥---|
14
口②④⑤ |①-②-|
③⑥口① |--③-|
口口⑤口 |④---|
口③①口 |⑤-⑥-|
15
①④口口 |--①-|
⑤口②③ |②---|
口①口口 |③-④-|
口⑤③口 |--⑤-|
16
⑤口①③ |①---|
⑦⑦⑦⑦ |②-③-|
④口口② |④-⑤-|
口⑥⑥口 |⑥-⑦-|
17
③③口① |----|
②②②口 |----|
口口口③ |--①-|
口口口口 |②-③-|
18
口口口③ |----|
口口④口 |①-②-|
口口①⑤ |--③-|
口口口② |④-⑤-|
19
⑥⑥③口 |--①-|
⑤⑤⑥② |②-③-|
口口①⑤ |--④-|
口口④口 |⑤-⑥-|
20
口口口④ |--①-|
口口⑤③ |②-③-|
口口②⑥ |--④-|
口口口① |⑤-⑥-|
21
①口口口 |----|
口②口口 |----|
③口口口 |--①-|
口口口口 |②-③-|
22
③口口口 |----|
口④口口 |①-②-|
⑤①口口 |--③-|
②口口口 |④-⑤-|
23
口③⑥⑥ |--①-|
②⑥⑤⑤ |②-③-|
⑤①口口 |--④-|
口④口口 |⑤-⑥-|
24
⑥口口口 |--①-|
③⑤口口 |②-③-|
④②口口 |--④-|
①口口口 |⑤-⑥-|
25
口口口① |----|
口口②口 |----|
口③口口 |①②③④|
④口口⑤ |⑤---|
26
口②④⑤ |①-②-|
③⑥口① |--③-|
口口⑤口 |④---|
口③①口 |⑤-⑥-|
27
①④口口 |--①-|
⑤口②③ |②---|
口①口口 |③-④-|
口⑤③口 |--⑤-|
28
⑤口①③ |①---|
口⑦⑦口 |②-③-|
④口口② |④-⑤-|
口⑥⑥口 |⑥-⑦-|
29
⑥口口⑤ |①-②-|
③口口① |③-④-|
口④②口 |--⑤-|
③口口① |⑥---|
30
口②④⑤ |①-②-|
③⑥口① |--③-|
口口⑤口 |④---|
口③①口 |⑤-⑥-|
31
①④口口 |--①-|
⑤口②③ |②---|
口①口口 |③-④-|
口⑤③口 |--⑤-|
32
⑤口①③ |①---|
⑦⑦⑦⑦ |②-③-|
④口口② |④-⑤-|
口⑥⑥口 |⑥-⑦-|
33
口③③④ |①---②-|
口口⑤口 |--③---|
口①①⑥ |--④-|
②口口② |⑤-⑥-|
34
口口口③ |----|
口口④口 |①-②-|
口口①⑤ |--③-|
口口口② |④-⑤-|
35
⑥⑥③口 |--①-|
⑤⑤⑥② |②-③-|
口口①⑤ |--④-|
口口④口 |⑤-⑥-|
36
口口口④ |--①-|
口口⑤③ |②-③-|
口口②⑥ |--④-|
口口口① |⑤-⑥-|
37
①口口口 |----|
口②口口 |----|
③口口口 |--①-|
口口口口 |②-③-|
38
③口口口 |----|
口④口口 |①-②-|
⑤①口口 |--③-|
②口口口 |④-⑤-|
39
口③⑥⑥ |--①-|
②⑥⑤⑤ |②-③-|
⑤①口口 |--④-|
口④口口 |⑤-⑥-|
40
⑥口口口 |--①-|
③⑤口口 |②-③-|
④②口口 |--④-|
①口口口 |⑤-⑥-|
41
口口口③ |----|
口口口口 |----|
口口口② |①-②-|
口口口① |--③-|
42
④口口口 |----|
口口口口 |①-②-|
③②口口 |--③-|
口①口口 |--④-|
43
口口口② |--①-|
口④③口 |--②-|
口口口① |--③-|
口口口口 |④---|
44
口⑥口口 |①---|
口口⑤口 |②-③-|
口③②④ |--④-|
①口口① |⑤-⑥-|
45
口口③口 |--①-|
口②口口 |②-③-|
①口口口 |----|
口口口口 |----|
46
口口⑦④ |①-②-|
口⑥口③ |③-④-|
⑤口口② |--⑤-|
口口口① |⑥-⑦-|
47
口③口口 |--①-|
⑥口②口 |②-③-|
⑤口口① |--④-|
④口口口 |⑤-⑥-|
48
①口口口 |①---|
口口口口 |--②-|
口口口口
口②口口

⑥④口③
口口③口
口口口⑤ |③-④-|
口口⑤口 |⑤-⑥-|
49
口口口口 |--①-|
⑤③口④ |②-③-|
口口②口 |--④-|
口口口① |⑤---|
50
③口①① |①-②-|
④口⑤⑤ |--③-|
③口②② |--④-|
④口⑥⑥ |⑤-⑥-|
51
③②口口 |--①-|
④①口⑤ |②---|
口②口口 |③-④-|
口①口口 |⑤---|
52
③口①① |①-②-|
④口⑤⑤ |--③-|
③口②② |--④-|
④口⑥⑥ |⑤-⑥-|
53
口②口口 |--①-|
④①口⑤ |②---|
③②口口 |③-④-|
口①口口 |⑤---|
54
⑥⑤④③ |①--②|
⑤⑥③④ |--③-|
口口②① |-④--|
口口①② |⑤--⑥|
55
口⑥⑧口 |--①-|
⑤口口⑦ |-②--|
②①④口 |③④-⑤|
①②口③ |⑥-⑦⑧|
56
口口口口 |-①②-|
口口④口 |③④-⑤|
⑤②口③
①口口口

⑩口口口
⑪⑥口⑨
口⑫⑧口 |⑥-⑦⑧|
口口⑦口 |⑨⑩⑪⑫|
57
口口口③ |----|
口口口口 |----|
口口口② |①-②-|
口口口① |--③-|
58
④口口口 |----|
口口口口 |①-②-|
③②口口 |--③-|
口①口口 |--④-|
59
口口口② |--①-|
口④③口 |--②-|
口口口① |--③-|
口口口口 |④---|
60
口⑥口口 |①---|
口口⑤口 |②-③-|
口③②④ |--④-|
①口口① |⑤-⑥-|
61
口口③口 |--①-|
口②口口 |②-③-|
①口口口 |----|
口口口口 |----|
62
口口⑦④ |①-②-|
口⑥口③ |③-④-|
⑤口口② |--⑤-|
口口口① |⑥-⑦-|
63
口③口口 |--①-|
⑥口②口 |②-③-|
⑤口口① |--④-|
④口口口 |⑤-⑥-|
64
①口①口 |①---|
口口口口 |--②-|
口口①口
口②口口

口口口⑤
⑥④⑤⑥
口⑥⑥③ |③-④-|
口口③口 |⑤-⑥-|
65
口口口口 |----|
口①②③ |----|
⑥⑤④口 |①-②-③-|
口口口口 |④-⑤-⑥-|
66
①①①① |①---|
口⑤口③ |②---|
口口④口 |③-④-|
②②②② |⑤---|
67
口口口口 |--①-|
⑤⑥②口 |②-③-|
④③⑦① |④-⑤-|
口口口口 |⑥-⑦-|
68
①①①① |①---|
口口④口 |②---|
口⑤口③ |③-④-|
②②②② |⑤---|
69
口口口口 |--①-|
④③⑥① |②-③-|
口⑤②口 |--④-|
口口口口 |⑤-⑥-|
70
④⑧⑦③ |①-②-|
⑧口口⑦ |③-④-|
⑥口口⑤ |⑤-⑥-|
②⑥⑤① |⑦-⑧-|
71
④⑧⑦③ |①-②-|
⑧④①⑦ |③-④-|
⑥②③⑤ |⑤-⑥-|
②⑥⑤① |⑦-⑧-|
72
④口口③ |①-②-|
口⑧⑤⑦ |③-④-|
⑥②口⑦ |⑤-⑥-|
⑧⑥⑤① |⑦-⑧-|
73
④④③③ |①-②-|
②⑧⑤⑦ |③-④-|
⑥②①⑦ |⑤-⑥-|
⑧⑥⑤① |⑦-⑧-|
74
④④②② |①-②-|
③口⑥⑥ |--③-|
口③①⑤ |④---|
口口⑤① |⑤-⑥-|
75
口口口口 |--①-|
②口口口 |②---|
②口口口
①①口口

③口口⑦
口④⑧口
口⑨⑤口 |③④⑤⑥|
⑩口口⑥ |⑦⑧⑨⑩|
76
④口②⑥ |①-②-|
口④⑥② |--③-|
③口⑤① |④---|
口③①⑤ |⑤-⑥-|
77
③①口⑦ |--①-|
①④⑧口 |②---|
②⑨⑤口 |③④⑤⑥|
⑩②口⑥ |⑦⑧⑨⑩|
78
口②④⑤ |①-②-|
③⑥口① |--③-|
口口⑤口 |④---|
口③①口 |⑤-⑥-|
79
①④口口 |--①-|
⑤口②③ |②---|
口①口口 |③-④-|
口⑤③口 |--⑤-|
80
⑤口①③ |①---|
口⑦⑦口 |②-③-|
④口口② |④-⑤-|
口⑥⑥口 |⑥-⑦-|
81
⑥口口⑤ |①-②-|
③口口① |③-④-|
口④②口 |--⑤-|
③口口① |⑥---|
82
口②④⑤ |①-②-|
③⑥口① |--③-|
口口⑤口 |④---|
口③①口 |⑤-⑥-|
83
①④口口 |--①-|
⑤口②③ |②---|
口①口口 |③-④-|
口⑤③口 |--⑤-|
84
⑤口①③ |①---|
⑦⑦⑦⑦ |②-③-|
④口口② |④-⑤-|
口⑥⑥口 |⑥-⑦-|
85
口③③口 |①---②-|
口口口口 |--③---|
口①①口 |----|
②口口② |----|


不確定度: 0

最終更新:2013年02月26日 21:41