猛烈宇宙交響曲・第七楽章「無限の愛」
ももいろクローバーZ

BASIC

Level: 4
BPM: 174
Notes: 238

1
口口口口 |----|
口口口口 |----|
口口口口 |----|
口口口口 |----|
2
①①②② |①---|
口口口口 |----|
口口口口 |②---|
口口口口 |----|
3
口口口口 |①---|
①①②② |----|
口口口口 |②---|
口口口口 |----|
4
口口口口 |①---|
口口口口 |----|
口①①口 |----|
口口口口 |----|
5
口口口口 |①---|
②口口② |----|
口口口口 |②---|
口①①口 |----|
6
口口口口 |①---|
口口口口 |②---|
口口口口 |③---|
①②③④ |④---|
7
口口口口 |①---|
口口口口 |②---|
①②③④ |③---|
口口口口 |④---|
8
口口口口 |①---|
①②③④ |②---|
口口口口 |③---|
口口口口 |④---|
9
①②③口 |①---|
口口口口 |②---|
口口口口 |③---|
口口口口 |----|
10
口口口口 |①---|
口口口口 |②---|
③③口④ |③---|
①①口② |④---|
11
③③口④ |①---|
①①口② |②---|
口口口口 |③---|
口口口口 |④---|
12
口口口口 |①---|
口①口口 |②---|
口口②口 |③---|
口③④口 |④---|
13
口③口口 |①---|
口口②口 |②---|
口①口口 |③---|
口口口口 |----|
14
口口口口 |①---|
口口口口 |②---|
④口③③ |③---|
②口①① |④---|
15
④口③③ |①---|
②口①① |②---|
口口口口 |③---|
口口口口 |④---|
16
口口口口 |①---|
口口①口 |②---|
口②口口 |③---|
口④③口 |④---|
17
口口口口 |①---|
口口口口 |----|
口口①口 |----|
口口口口 |----|
18
①口口② |①---|
①口口② |----|
口口口口 |②---|
口口口口 |----|
19
口口口口 |①---|
口口口口 |----|
①口口② |②---|
①口口② |----|
20
口口口口 |①---|
口①②口 |----|
口①②口 |②---|
口口口口 |----|
21
口①②口 |①---|
口③④口 |②---|
口口口口 |③---|
口口口口 |④---|
22
①口口② |①---|
①口口② |----|
口口口口 |②---|
口口口口 |----|
23
口口口口 |①---|
口口口口 |----|
①口口② |②---|
①口口② |----|
24
口②④口 |①---|
口口口口 |②---|
口①③口 |③---|
口口口口 |④---|
25
口口口口 |①---|
口①①口 |②---|
②口口② |③---|
口③③口 |----|
26
口口口① |①---|
口②口口 |----|
口口口口 |----|
口口口口 |②---|
27
口口口口 |----|
口口口口 |----|
口口①口 |①---|
口口口口 |----|
28
口口口口 |----|
口口口口 |①---|
口口口口 |----|
①口②口 |②---|
29
口口口口 |①---|
口①口口 |----|
口口口口 |②---|
口口口② |----|
30
口口口口 |①---|
口口口④ |②---|
口③②口 |③---|
①口口口 |④---|
31
①口口① |①---|
口②②口 |--②-|
口②②口 |----|
口口口口 |----|
32
口⑤口口 |①---|
口口④口 |--②-|
口③口口 |--③-|
①口口② |④-⑤-|
33
口口口① |--①-|
②口口口 |----|
口口口③ |②---|
口口口口 |③---|
34
口口口口 |①---|
口③口口 |②-③-|
口口②口 |----|
口①口口 |----|
35
口口口口 |----|
口口口口 |----|
口口口口 |----|
口口口口 |----|
36
口口⑤口 |①---|
口④口口 |--②-|
口口③口 |--③-|
②口口① |④-⑤-|
37
口②口口 |----|
口口③① |①---|
口④口口 |②--③|
口口口口 |--④-|
38
口口口口 |①---|
口口口口 |----|
口口口口 |----|
口口①口 |----|
39
口①①口 |--①-|
口②②口 |----|
口③③口 |②---|
口口口口 |③---|
40
口口口口 |①---|
口口口口 |----|
口口口口 |----|
口①①口 |----|
41
①口口① |--①-|
②口口② |----|
③口口③ |②---|
口口口口 |③---|
42
口口口口 |①---|
口口口口 |----|
口口口口 |----|
①口口① |----|
43
口口口口 |----|
口口口口 |①---|
口口③口 |②---|
口②①口 |③---|
44
口口④口 |①---|
口③②口 |②---|
口①口口 |③---|
口口口口 |④---|
45
③①口② |①---|
口口口④ |②---|
口口口口 |③---|
口口口口 |④---|
46
口口口口 |①---|
①口口口 |②---|
口口口② |----|
口口口口 |----|
47
口口口口 |----|
口口口口 |----|
口口口口 |----|
口口口口 |----|
48
口口口口 |①---|
口口口口 |----|
②②②② |----|
①①①① |--②-|
49
口口口口 |----|
①口口① |----|
口口口口 |----|
口口口口 |①---|
50
①口口① |①---|
口③口口 |②-③-|
口口②口 |----|
口口口口 |----|
51
口口口口 |----|
口口口口 |----|
口口口口 |----|
口口口口 |----|
52
口口⑤口 |①---|
口④口口 |--②-|
口口③口 |--③-|
②口口① |④-⑤-|
53
口②口口 |----|
口口③① |①---|
口④口口 |②--③|
口口口口 |--④-|
54
口口口口 |①---|
②口口口 |--②-|
口口口口 |----|
口口①口 |----|
55
口①①口 |--①-|
口②②口 |----|
口③③口 |②---|
口口口口 |③---|
56
口口口口 |①---|
口口口口 |----|
口口口口 |----|
口①①口 |----|
57
①口口① |--①-|
②口口② |----|
③口口③ |②---|
口口口口 |③---|
58
口口口口 |①---|
口口口口 |----|
口口口口 |----|
①口口① |----|
59
口口口口 |----|
口口口口 |①---|
口口③口 |②---|
口②①口 |③---|
60
口口④口 |①---|
口③②口 |②---|
口①口口 |③---|
口口口口 |④---|
61
③①口② |①---|
口口口④ |②---|
口口口口 |③---|
口口口口 |④---|
62
口口口口 |①---|
①口口口 |②---|
口口口② |----|
口口口口 |----|
63
①①①① |①---|
口③③口 |----|
口③③口 |②---|
②②②② |--③-|
64
口口口口 |----|
口③③口 |----|
口③③口 |①-②-|
①口口② |--③-|

不確定度: 0

最終更新:2014年08月01日 11:48