猛烈宇宙交響曲・第七楽章「無限の愛」
ももいろクローバーZ

ADVANCED

Level: 7
BPM: 174
Notes: 392

1
口口口口 |----|
口①②口 |----|
口③④口 |①-②-③-|
口⑤⑥口 |④-⑤-⑥-|
2
①①②② |①---|
①口口② |----|
口口口口 |②---|
口口口口 |----|
3
口口口口 |①---|
口口口口 |----|
①口口② |②---|
①①②② |----|
4
口口口口 |①---|
口①①口 |----|
口①①口 |----|
口口口口 |----|
5
②口口② |①---|
口①①口 |----|
口②②口 |②---|
口口口口 |----|
6
④④④④ |①---|
③③③口 |②---|
②②口口 |③---|
①口口口 |④---|
7
④④④④ |①---|
口③③③ |②---|
口口②② |③---|
口口口① |④---|
8
口口口④ |①---|
口口③④ |②---|
口②③④ |③---|
①②③④ |④---|
9
①②③口 |①---|
口②③口 |②---|
口口③口 |③---|
口口口口 |----|
10
①①口口 |①---|
口口口② |②---|
③③口口 |③---|
口口口④ |④---|
11
口口口口 |①---|
口①①口 |②---|
口口口口
口②②口

④④口口
口⑤口口
③口口③ |③---|
口口口口 |④---⑤-|
12
口口②② |①---|
⑦口④① |②---|
③⑤口口 |③-④⑤|
口口⑥口 |⑥---⑦-|
13
口③口口 |①---|
口②③① |②---|
口口口口 |③---|
口口口口 |----|
14
口口①① |①---|
②口口口 |②---|
口口③③ |③---|
④口口口 |④---|
15
口②口口 |①-②③|
口口③⑤ |④---⑤-|
口④口口
口口①①

口口口口
⑥口口口
⑧口口口 |⑥---|
口⑦⑦口 |⑦---⑧-|
16
口②②口 |①---|
③④⑤③ |②---|
口⑥口① |③---④-|
口口口口 |⑤---⑥-|
17
口口口口 |①---|
口口口口 |----|
口口①口 |----|
口口口口 |----|
18
①口口③ |①---|
口口②口 |②---③-|
口⑤⑥口 |④---⑤-|
④口口⑦ |⑥---⑦-|
19
①口口④ |①---②-|
口②③口 |③---④-|
口⑥⑦口 |⑤---⑥-|
⑤口口⑧ |⑦---⑧-|
20
①③②⑤ |①-②-③-|
口口④口 |④---⑤-|
口口⑨口 |⑥-⑦-⑧-|
⑥⑧⑦⑩ |⑨---⑩-|
21
①②③口 |①---②-|
④口口口 |③---④-|
口⑥⑤口 |⑤---⑥-|
口口⑧⑦ |⑦---⑧-|
22
①口口④ |①---②-|
口②③口 |③---④-|
口⑥⑦口 |⑤---⑥-|
⑤口口⑧ |⑦---⑧-|
23
①③②⑤ |①-②-③-|
口口④口 |④---⑤-|
口口⑧口 |⑥---⑦-|
⑥⑦口⑨ |⑧---⑨-|
24
⑤②②⑤ |①---|
口口④口 |②---|
①③③① |③---④-|
口口口口 |⑤---|
25
口①①口 |①---②-|
②口口③ |③---④-|
④口口⑤ |⑤---|
口口口口 |----|
26
口①口口 |①---|
口④口口 |----|
口口③口 |②-③-|
口②口口 |④---|
27
口口①③ |①---|
②口口口 |②---|
口口口口 |③---|
口口口口 |----|
28
口③口口 |①-②-|
口口口② |③---|
①口口口 |----|
口④口口 |④---|
29
①②③口 |①-②-|
口口口口 |③---|
口口口口 |④-⑤-|
口⑥⑤④ |⑥---|
30
⑤⑥⑦口 |①-②-|
口口④③ |③-④-|
①②口口 |⑤-⑥-|
口口口口 |⑦---|
31
②口口② |①---|
口口口口 |--②-|
口①①口 |----|
口口口口 |----|
32
②①口口 |①---|
①②口口 |--②-|
口③口口 |--③-|
口口④⑤ |④-⑤-|
33
口口口口 |--①-|
口口②① |----|
口口①② |②---|
口③口口 |③---|
34
口口口① |①---|
口口②口 |②-③-|
口③口口 |----|
口口口口 |----|
35
口口口口 |----|
口口口口 |----|
口口口口 |----|
口口口口 |----|
36
口口口口 |①---|
口口口口 |--②-|
②①口口
①②口口

口口口口
口⑤口⑤
口④④④ |--③-|
口口③口 |④-⑤-|
37
口②②口 |----|
③口①③ |①---|
④口口④ |②--③|
口口口口 |--④-|
38
口口口口 |①---|
口口口口 |----|
口口口口 |----|
口①①口 |----|
39
口①口① |--①-|
②口②口 |----|
口③口③ |②---|
口口口口 |③---|
40
口口口口 |①---|
口口口口 |----|
口口口口 |----|
①口①口 |----|
41
①口①口 |--①-|
口②口② |----|
③口③口 |②---|
口口口口 |③---|
42
口口口口 |①---|
口口口口 |----|
口口口口 |----|
口①口① |----|
43
口③②① |--①-|
④⑤⑥口 |②-③-|
口⑦⑦口 |④-⑤-|
口口口口 |⑥-⑦-|
44
①④④① |①---|
⑤口口⑤ |②-③-|
②口口② |--④-|
口③③口 |--⑤-|
45
口口口口 |----|
口④④口 |①---|
③①①③ |②---|
口②②口 |③-④-|
46
②①①② |--①-|
口口口口 |②---|
口口口口 |----|
口口口口 |----|
47
口口口口 |----|
口口口口 |----|
口口口口 |----|
口口口口 |----|
48
口口口口 |①---|
口口口口 |----|
②②②② |----|
①①①① |--②-|
49
口口口口 |----|
口口口口 |----|
口口口口 |----|
①①①① |①---|
50
①①①① |①---|
口②③口 |②-③-|
口口口口 |----|
口口口口 |----|
51
口口口口 |----|
口口口口 |----|
口口口口 |----|
口口口口 |----|
52
口口口口 |①---|
口口①② |--②-|
口口②①
口口口口

口口口口
口口⑤口
④口口口 |--③-|
口③口口 |④-⑤-|
53
口②②口 |----|
③①口③ |①---|
④口口④ |②--③|
口口口口 |--④-|
54
②口口② |①---|
口口口口 |--②-|
口口口口 |----|
口①①口 |----|
55
口①口① |--①-|
②口②口 |----|
口③口③ |②---|
口口口口 |③---|
56
口口口口 |①---|
口口口口 |----|
口口口口 |----|
①口①口 |----|
57
①口①口 |--①-|
口②口② |----|
③口③口 |②---|
口口口口 |③---|
58
口口口口 |①---|
口口口口 |----|
口口口口 |----|
口①口① |----|
59
口③②① |--①-|
④⑤⑥⑦ |②-③-|
口口口口 |④-⑤-|
口口口口 |⑥-⑦-|
60
①③③① |①---|
口⑤④口 |②-③-|
口②②口 |--④-|
口④⑤口 |--⑤-|
61
④口口④ |----|
②口口① |①---|
口③③口 |②---|
①口口② |③-④-|
62
口①②口 |--①-|
口①②口 |②---|
口口口口 |----|
口口口口 |----|
63
②②②② |①---|
口③③口 |----|
口③③口 |②---|
①①①① |--③-|
64
①①③③ |----|
口口③口 |----|
口③口口 |①-②-|
③③②② |--③-|

不確定度: 0

最終更新:2014年08月01日 11:47