恋とキングコング
日向美ビタースイーツ♪

BASIC

Level: 4
BPM: 158
Notes: 375

1
口口口口 |----|
口口口口 |----|
口口口口 |----|
口口口口 |----|
2
口口口口 |①---|
①②③④ |②---|
口口口口 |③---|
口口口口 |④---|
3
口口口口 |①---|
口口口口 |②---|
①②③④ |③---|
口口口口 |④---|
4
口口口口 |①---|
①②③④ |②---|
口口口口 |③---|
口口口口 |④---|
5
口口口口 |①---|
口④口口 |②---|
①口③口 |③---|
口②口口 |④---|
6
口口①口 |①---|
口口②口 |②---|
口口③口 |③---|
口口④口 |④---|
7
口①口口 |①---|
口②口口 |②---|
口③口口 |③---|
口④口口 |④---|
8
口口①口 |①---|
口口②口 |②---|
口口③口 |③---|
口口④口 |④---|
9
口口口口 |①---|
②口口② |----|
①口口① |②---|
口口口口 |----|
10
口口口口 |①---|
口③③口 |②---|
口口口口 |③---|
口①②口 |----|
11
口口口口 |①---|
口③③口 |②---|
①口口② |③---|
口口口口 |----|
12
口口口口 |①---|
②口口② |----|
口口口口 |②---|
口①①口 |----|
13
②②②② |①---|
口口口口 |---②|
①口口① |----|
口口口口 |----|
14
口口口口 |①---|
口③③口 |②---|
口口口口 |③---|
口①②口 |----|
15
口口口口 |①---|
口③③口 |②---|
①口口② |③---|
口口口口 |----|
16
口①①口 |----|
口①①口 |①---|
口口口口 |----|
口口口口 |----|
17
口①口口 |①---|
口口②口 |②---|
口③口口 |③---|
口口④口 |④---|
18
口口口口 |①---|
口③③口 |②---|
口口口口 |③---|
①口口② |----|
19
口口口口 |①---|
口③③口 |②---|
①口口② |③---|
口口口口 |----|
20
口口口口 |①---|
②口口② |----|
口口口口 |②---|
口①①口 |----|
21
①口口① |①---|
②口口② |②---|
③口口③ |③---|
④口口④ |④---|
22
口口口口 |①---|
口③③口 |②---|
口口口口 |③---|
口①②口 |----|
23
口口口口 |①---|
口③③口 |②---|
①口口② |③---|
口口口口 |----|
24
口①①口 |----|
口①①口 |①---|
口口口口 |----|
②口口② |--②-|
25
口口口口 |----|
口①口口 |----|
口口②口 |①---|
口口口口 |②---|
26
口口口口 |①---|
口②④口 |②---|
口口口口 |③---|
口①③口 |④---|
27
③③口口 |①--②|
②②口口 |--③-|
①①口口 |----|
口口口口 |----|
28
口口①① |①--②|
口口②② |--③-|
口口③③ |----|
口口口口 |----|
29
①①口口 |①--②|
②②口口 |--③-|
③③口口 |----|
口口口口 |----|
30
口口口口 |----|
口①口口 |①---|
口口②口 |②---|
口③口口 |③---|
31
③口口③ |①--②|
②口口② |--③-|
①口口① |----|
口口口口 |----|
32
口口口口 |①---|
①②③④ |②---|
①②③④ |③---|
口口口口 |④---|
33
①口口① |①---|
口口口口 |②---|
口②②口 |----|
口口口口 |----|
34
口①口口 |①---|
口口口口 |----|
口口①口 |----|
口口口口 |----|
35
口口①口 |①---|
口口口口 |----|
口①口口 |----|
口口口口 |----|
36
口口口口 |①---|
①口口口 |----|
口口口口 |----|
口口①口 |----|
37
口口口口 |①---|
口口口① |----|
口口口口 |----|
口①口口 |----|
38
口口口口 |①---|
①口口① |----|
口①①口 |----|
口口口口 |----|
39
口口口口 |①---|
口口口口 |----|
口①①口 |----|
①口口① |----|
40
口口口口 |①---|
口①①口 |----|
口口口口 |----|
口①①口 |----|
41
口口口口 |①---|
口口口口 |----|
口口口口 |----|
①口口① |----|
42
口口口口 |①---|
口口口口 |②---|
③②口口 |③---|
④①口口 |④---|
43
口口口口 |①---|
口口口口 |②---|
口口②③ |③---|
口口①④ |④---|
44
口口口口 |①---|
口②口口 |②---|
①①口口
口口口口

口口口口
③口口口
④口口口 |③---|
口口口口 |④---|
45
口口口口 |①---|
口口②口 |②---|
口口①①
口口口口

口口口口
口口口③
口口口④ |③---|
口口口口 |④---|
46
口口口口 |①---|
口口口口 |----|
口①②口 |②---|
③②①③ |--③-|
47
口口口口 |----|
①口口① |①---|
口口口口 |----|
口口口口 |----|
48
口口口口 |①---|
口口口口 |----|
口①②口 |②---|
③②①③ |--③-|
49
口口口口 |----|
①①①① |①---|
口口口口 |----|
口口口口 |----|
50
④口口② |①---|
口口口口 |②---|
③③①① |③---|
口口口口 |④---|
51
④口口② |①---|
口口口口 |②---|
③③①① |③---|
口口口口 |④---|
52
口口口口 |①---|
④①①④ |②---|
③②②③ |③---|
口口口口 |④---|
53
口口口口 |①---|
④①①④ |②---|
③②②③ |③---|
口口口口 |④---|
54
①①口口 |①---|
口②口口 |②---|
口③口口 |③---|
口④口口 |④---|
55
口口④口 |①---|
口口③口 |②---|
口口②口 |③---|
口口①① |④---|
56
口口口口 |①---|
①④④① |②---|
口口口口 |③---|
②③③② |④---|
57
③③③③ |①---|
②口口② |②---|
口①①口 |③---|
口口口口 |----|
58
④口口② |①---|
口口口口 |②---|
③③①① |③---|
口口口口 |④---|
59
④口口② |①---|
口口口口 |②---|
③③①① |③---|
口口口口 |④---|
60
口口口口 |①---|
④①①④ |②---|
③②②③ |③---|
口口口口 |④---|
61
口口口口 |①---|
④①①④ |②---|
③②②③ |③---|
口口口口 |④---|
62
①①口口 |①---|
口②口口 |②---|
口③口口 |③---|
口④口口 |④---|
63
口口④口 |①---|
口口③口 |②---|
口口②口 |③---|
口口①① |④---|
64
口口口口 |①---|
①④④① |②---|
口口口口 |③---|
②③③② |④---|
65
①口口① |①---|
③口口③ |②---|
②④④② |③---|
口口口口 |④---|
66
①②①② |①---|
③④③④ |②---|
口口口口 |③---|
口口口口 |④---|
67
口口口口 |①---|
口口口口 |②---|
①②①② |③---|
③④③④ |④---|
68
③口③口 |①---|
④②④② |②---|
①口①口 |③---|
口口口口 |④---|
69
④口④口 |①---|
⑤③⑤③ |②---|
②口②口 |③---|
口①口① |④-⑤-|
70
口口口口 |----|
口②口② |①---|
口①口口 |----|
口口①口 |--②-|
71
口口口口 |----|
口口口口 |①---|
②口①② |②---|
③①口③ |③---|
72
口口②口 |①---|
口②口口 |--②-|
口①口口 |----|
③口①③ |--③-|
73
口口口口 |--①-|
①①②② |②---|
③③④④ |③-④-|
⑤口口⑤ |--⑤-|
74
口口口口 |--①-|
①①②② |②---|
口口口口 |----|
口口口口 |----|


不確定度: 0

最終更新:2013年05月16日 13:50