恋とキングコング
日向美ビタースイーツ♪

ADVANCED

Level: 7
BPM: 158
Notes: 535

1
口口口口 |----|
口口口口 |----|
口口口口 |----|
口口口口 |----|
2
①③③① |①---|
口口口口 |②-③-|
口口口口
口口②口

⑥口口口
口④口⑥
口口口口 |--④-|
口⑤口口 |⑤-⑥-|
3
口③③⑥ |--①-|
⑥口④口 |②-③-|
口②口口 |--④-|
口口⑤① |⑤-⑥-|
4
⑥③③⑥ |--①-|
口④口口 |②-③-|
口②口口 |--④-|
口⑤口① |⑤-⑥-|
5
口⑤④口 |--①-|
⑥口口③ |②-③-|
⑦口⑦② |④-⑤-|
口口①口 |⑥-⑦-|
6
②口②口 |①---|
③⑤⑥④ |②---|
口口口口 |③-④-|
③①口口 |⑤-⑥-|
7
口①口① |----|
③口④② |①---|
口口口口 |②-③-|
⑤⑤口② |④-⑤-|
8
①口口① |----|
②③④② |①---|
口④③口 |②-③-|
口⑤⑤口 |④-⑤-|
9
口口口口 |----|
口口口口 |----|
口口口口 |----|
口口口口 |----|
10
①口口② |①---|
口④⑤口 |②---|
③口口⑥ |③-④-|
口口口口 |⑤-⑥-|
11
口⑥⑥口 |--①-|
②口口⑤ |--②-|
口③④口 |③-④-|
口①①口 |⑤-⑥-|
12
口口口口 |----|
口①①口 |----|
口口口口 |----|
口口口口 |--①-|
13
口口口口 |--①-|
②口口② |---②|
口①①口 |----|
口②②口 |----|
14
①口口② |①---|
口④⑤口 |②---|
③口口⑥ |③-④-|
口口口口 |⑤-⑥-|
15
口⑥⑤口 |--①-|
①⑦⑦④ |②-③-|
口②③口 |④-⑤-|
口口口口 |⑥-⑦-|
16
①口口① |----|
口口口口 |①---|
①口口① |----|
口口口口 |----|
17
①①①① |--①-|
口③④口 |--②-|
⑤④③口 |③--④|
②②②② |--⑤-|
18
口②③口 |①-②-|
①⑦⑥④ |③-④-|
口⑧⑧口 |⑤-⑥-|
口口⑤口 |⑦-⑧-|
19
口口口口 |--①-|
④口口⑤ |②---|
口⑥⑥口 |③-④-|
②③③① |⑤-⑥-|
20
口口口口 |----|
口口口口 |----|
口口口口 |----|
口口①口 |--①-|
21
③口口③ |①-②-|
口⑤④口 |③-④-|
口①①口 |--⑤-|
②④⑤② |----|
22
口②③口 |①-②-|
①⑦⑥④ |③-④-|
口⑧⑧口 |⑤-⑥-|
口口⑤口 |⑦-⑧-|
23
④口口④ |--①-|
口⑤⑥口 |②-③-|
②⑥⑤③ |④---|
口①口口 |⑤-⑥-|
24
①口口① |----|
口口口口 |①---|
①口口① |----|
口②②口 |--②-|
25
口口口口 |----|
口①②口 |----|
口③④口 |①-②-|
口口口口 |③-④-|
26
口口①① |----|
②口③③ |①-②-|
④口⑤⑤ |③-④-|
⑥口口口 |⑤-⑥-|
27
口③⑤③ |①--②|
②⑥②口 |--③-|
口口④口 |--④-|
口①口① |⑤-⑥-|
28
口口口口 |①--②|
①口①口 |--③-|
口②口② |----|
③口③口 |----|
29
口口口口 |①--②|
①口①口 |--③-|
口②口② |----|
③口③口 |----|
30
口口①① |----|
②口③③ |①-②-|
④口⑤⑤ |③-④-|
⑥口口口 |⑤-⑥-|
31
口③口③ |①--②|
②口②口 |--③-|
口⑤⑥口 |--④-|
口①④① |⑤-⑥-|
32
口口口口 |①---|
①①①① |②-③-|
口④④口 |--④-|
⑤②③⑤ |⑤---|
33
①①①① |①---|
口口口口 |②---|
口口口口 |----|
口②②口 |----|
34
①口口① |①---|
③⑥②③ |②-③-|
口口⑤口 |--④-|
口④口口 |⑤-⑥-|
35
口口口口 |----|
口口③口 |----|
①口口口 |--①-|
口口②口 |②-③-|
36
⑤①②⑤ |①-②-|
③口口④ |--③-|
④口口③ |--④-|
口口口口 |--⑤-|
37
口口口口 |----|
口口口口 |----|
口口口口 |----|
口口口口 |----|
38
③①①③ |①---|
口④⑤口 |②-③-|
口②口口 |--④-|
口口⑥口 |⑤-⑥-|
39
口⑤⑥口 |①-②-|
③⑦口④ |③-④-|
口①②口 |--⑤-|
口口口口 |⑥-⑦-|
40
口口口口 |①--②|
②口口② |--③-|
口③口口
口①①口

口口口口
口口口口
口口④口 |④---|
口口⑤口 |--⑤-|
41
口③③口 |①-②-|
口②②口 |--③-|
口口口口
口①口口

口口口口
口口⑥口
④⑤口口 |--④-|
口口口口 |⑤-⑥-|
42
⑥④④⑥ |①---|
②口口① |②-③-|
口⑤⑤口 |--④-|
口③③口 |⑤-⑥-|
43
口口口口 |----|
口口口口 |----|
②③③② |--①-|
口①①口 |②-③-|
44
④①①④ |①---|
口⑥⑥② |②-③-|
口⑤⑤口 |--④-|
口③③口 |⑤-⑥-|
45
④②②④ |①---|
⑥口口⑥ |②-③-|
①⑤⑤① |--④-|
③口口③ |⑤-⑥-|
46
口口口口 |①---|
口②③口 |--②-|
口口口口 |③---|
④①①④ |--④-|
47
④④③③ |--①-|
口①②口 |②---|
⑤②①⑤ |--③-|
口口口口 |④-⑤-|
48
口口口口 |①---|
口②③口 |--②-|
口口口口 |③---|
④①①④ |--④-|
49
口口口口 |--①-|
①①②② |②---|
②②①① |----|
口口口口 |----|
50
①①①① |①---|
口口口口 |--②-|
口口②口
口口口口

口⑥口口
口口⑤口
口④口口 |③-④-|
口③口口 |⑤-⑥-|
51
④②④② |----|
口口口口 |----|
③①③① |①-②-|
口口口口 |③-④-|
52
⑥④⑥④ |--①-|
口口口口 |②---|
⑤③⑤③ |③-④-|
口①②口 |⑤-⑥-|
53
口口口口 |--①-|
口口口口 |②---|
口口口口 |----|
口①②口 |----|
54
口④口口 |①-②-|
口①口口 |--③-|
口⑤③口 |--④-|
口②⑤口 |--⑤-|
55
口口口口 |----|
③口②③ |①-②-|
口口①口 |--③-|
口④口口 |--④-|
56
①①①① |①---|
口②③口 |②-③-|
口口口口
口口口口

⑤口口⑤
口口口口
口口口口 |--④-|
口④④口 |--⑤-|
57
口口口口 |--①-|
口①②口 |②---|
口口口口 |③---|
③③③③ |----|
58
⑤⑤⑤⑤ |①---|
①④口① |--②-|
口口②口 |③-④-|
口③口口 |--⑤-|
59
④②④② |----|
口口口口 |----|
③①③① |①-②-|
口口口口 |③-④-|
60
⑥④⑥④ |--①-|
口口口口 |②---|
⑤③⑤③ |③-④-|
口①②口 |⑤-⑥-|
61
口口口口 |--①-|
①②④③ |②-③-|
口⑤口口 |--④-|
口口⑥口 |⑤-⑥-|
62
口④口口 |①-②-|
口①口口 |--③-|
口口③口 |--④-|
⑤②⑤口 |--⑤-|
63
口③口③ |--①-|
②口②口 |--②-|
口①口① |--③-|
口口口口 |----|
64
①口口⑤ |①---|
口②③口 |②-③-|
口口口口 |--④-|
⑤④④① |--⑤-|
65
口口口口 |--①-|
口①④口 |②-③-|
③⑤②③ |--④-|
口口⑥口 |⑤-⑥-|
66
①口口口 |①---|
②口⑤口 |②---|
③口⑥口 |③-④-|
⑤口口④ |⑤-⑥-|
67
口①⑤② |①---|
口②口口 |②-③-|
口④⑦③ |④-⑤-|
口⑥口口 |⑥-⑦-|
68
①口口口 |①---|
②口①口 |②-③-|
口口口③
口口口②

口口⑤⑤
口口⑦⑦
④口口口 |④-⑤-|
⑥口口口 |⑥-⑦-|
69
⑥①口⑥ |①-②-|
口③口口 |③---|
口④②② |④---|
口⑤口口 |⑤-⑥-|
70
④口口④ |--①-|
口①②口 |②---|
口口口口 |----|
③口口③ |③-④-|
71
口口口口 |--①-|
口①②口 |②---|
③口口④ |③-④-|
口⑤⑥口 |⑤-⑥-|
72
③④口③ |①---|
①口⑤① |②-③-|
口口②口 |--④-|
口⑥⑥口 |⑤-⑥-|
73
口口口口 |--①-|
①③④② |②---|
②④③① |③-④-|
口⑤⑤口 |--⑤-|
74
①口口② |--①-|
口口口口 |②---|
口口口口 |----|
②口口① |----|


不確定度: 0

最終更新:2013年05月16日 13:50