cloche
Qrispy Joybox

BASIC

Level: 3
BPM: 182
Notes: 232

1
口口口口 |----|
口口口口 |----|
口口口口 |----|
口口口口 |----|
2
口口口口 |①---|
口口口口 |----|
①②②① |----|
口口口口 |--②-|
3
口口口口 |----|
口①①口 |--①-|
口口口口 |----|
口口口口 |----|
4
口③③口 |①---|
口口口口 |--②-|
①口口① |----|
口②②口 |--③-|
5
口口口口 |----|
口口口口 |----|
口口口口 |----|
口口口口 |----|
6
口口口口 |①---|
口口口口 |----|
①②②① |----|
口口口口 |--②-|
7
口口口口 |----|
口①①口 |--①-|
口口口口 |----|
口口口口 |----|
8
口③③口 |①---|
口口口口 |--②-|
①口口① |----|
口②②口 |--③-|
9
口口口口 |----|
口口口口 |----|
口口口口 |----|
口口口口 |----|
10
口口口口 |①---|
口口口口 |----|
①口口② |②---|
口口口口 |----|
11
口口口口 |①---|
①口口② |----|
口口口口 |②---|
口口口口 |----|
12
口口口口 |①---|
口③③口 |----|
口①②口 |②---|
口口口口 |--③-|
13
口口口口 |----|
口口口口 |----|
口口口口 |----|
口口口口 |----|
14
口口口口 |①---|
口口口口 |----|
①口口② |②---|
口口口口 |----|
15
口口口口 |①---|
①口口② |----|
口口口口 |②---|
口口口口 |----|
16
口口口口 |①---|
口③③口 |----|
口①②口 |②---|
口口口口 |--③-|
17
口口口口 |----|
口口口口 |----|
口口口口 |----|
口口口口 |----|
18
口口口口 |①---|
口口口口 |----|
口②②口 |②---|
口①①口 |----|
19
口②②口 |①---|
口①①口 |----|
口口口口 |②---|
口口口口 |----|
20
①口口① |①---|
口②②口 |----|
口口口口 |②---|
口口口口 |----|
21
口口口口 |①---|
口口口口 |----|
①口口① |----|
口口口口 |----|
22
口口口口 |①---|
口口口口 |----|
口②②口 |②---|
口①①口 |----|
23
③②②③ |①---|
口①①口 |----|
口口口口 |②---|
口口口口 |③---|
24
口口口口 |①---|
①②②① |----|
口口口口 |②---|
口口口口 |----|
25
口口口口 |①---|
口口口口 |----|
口①①口 |----|
口口口口 |----|
26
口口口口 |①---|
①口口② |----|
口③③口 |②---|
口口口口 |--③-|
27
口②②口 |--①-|
口①①口 |--②-|
口口口口 |----|
口口口口 |----|
28
口口口口 |①---|
口③③口 |----|
①口口② |②---|
口口口口 |--③-|
29
口口口口 |----|
口口口口 |----|
口口口口 |----|
口口口口 |----|
30
口口口口 |①---|
①口口② |----|
口③③口 |②---|
口口口口 |--③-|
31
口②②口 |--①-|
口①①口 |--②-|
口口口口 |----|
口口口口 |----|
32
口口口口 |①---|
口③③口 |----|
①口口② |②---|
口口口口 |--③-|
33
口口口口 |----|
口口口口 |----|
口口口口 |----|
口口口口 |----|
34
①口口② |①---|
口口口口 |----|
口口口口 |②---|
口口口口 |----|
35
口口口口 |①---|
口口口口 |----|
口口口口 |②---|
①口口② |----|
36
口口口口 |①---|
口①②口 |----|
口口口口 |②---|
口口口口 |----|
37
口口口口 |①---|
口口口口 |----|
口①①口 |----|
口口口口 |----|
38
①口口② |①---|
口口口口 |----|
口口口口 |②---|
口口口口 |----|
39
口口口口 |①---|
口口口口 |----|
口口口口 |②---|
①口口② |----|
40
口口口口 |①---|
口①②口 |----|
口口口口 |②---|
口口口口 |----|
41
口口口口 |①---|
口口口口 |----|
口①①口 |----|
口口口口 |----|
42
口③③口 |①---|
①口口① |----|
口②②口 |②---|
口口口口 |--③-|
43
口口口口 |----|
口口口口 |----|
口口口口 |----|
口口口口 |----|
44
口口口口 |①---|
口③③口 |----|
①口口① |②---|
口②②口 |--③-|
45
口口口口 |----|
口口口口 |----|
口口口口 |----|
口口口口 |----|
46
口③③口 |①---|
①口口① |----|
口②②口 |②---|
口口口口 |--③-|
47
口口口口 |----|
口口口口 |----|
口口口口 |----|
口口口口 |----|
48
口口口口 |①---|
口③③口 |----|
①口口① |②---|
口②②口 |--③-|
49
口口口口 |----|
口口口口 |----|
口口口口 |----|
口口口口 |----|
50
口口口口 |----|
口口口口 |----|
口口口口 |----|
口口口口 |----|
51
口口口口 |①---|
口口口口 |----|
口②②口 |②---|
口①①口 |----|
52
口②②口 |①---|
口①①口 |----|
口口口口 |②---|
口口口口 |----|
53
①口口① |①---|
口②②口 |----|
口口口口 |②---|
口口口口 |----|
54
口口口口 |①---|
口口口口 |----|
①口口① |----|
口口口口 |----|
55
口口口口 |①---|
口口口口 |----|
口②②口 |②---|
口①①口 |----|
56
③②②③ |①---|
口①①口 |----|
口口口口 |②---|
口口口口 |③---|
57
口口口口 |①---|
①②②① |----|
口口口口 |②---|
口口口口 |----|
58
口口口口 |①---|
口口口口 |----|
口①①口 |----|
口口口口 |----|
59
①②口口 |①---|
①②口口 |----|
口口口口 |②---|
口口口口 |----|
60
口口①② |①---|
口口①② |----|
口口口口 |②---|
口口口口 |----|
61
口口口口 |①---|
口口口口 |----|
口口②① |②---|
口口②① |----|
62
口口口口 |①---|
口口③③ |----|
口①②② |②---|
口①口口 |③---|
63
①②口口 |①---|
①②口口 |----|
口口口口 |②---|
口口口口 |----|
64
口口①② |①---|
口口①② |----|
口口口口 |②---|
口口口口 |----|
65
口口口口 |①---|
口口口口 |----|
口口②① |②---|
口口②① |----|
66
口口口口 |①---|
口口口口 |----|
口①口口 |----|
口①口口 |----|
67
①②口口 |①---|
口口口口 |----|
口口口口 |②---|
口口口口 |----|
68
口口①② |①---|
口口口口 |----|
口口口口 |②---|
口口口口 |----|
69
口口口口 |①---|
口口②① |----|
口口口口 |②---|
口口口口 |----|
70
口口口口 |①---|
②①口口 |----|
口口口口 |②---|
口口口口 |----|
71
口口口口 |①---|
口口口口 |----|
①②口口 |②---|
口口口口 |----|
72
口口口口 |①---|
口口口口 |----|
口口①② |②---|
口口口口 |----|
73
口口口口 |①---|
口口口口 |----|
口口口口 |②---|
口口②① |----|
74
口口口口 |①---|
口口口口 |----|
口口口口 |②---|
②①口口 |----|
75
①口口② |①---|
口口口口 |----|
口口口口 |②---|
口口口口 |----|
76
口口口口 |①---|
口口口口 |----|
口口口口 |②---|
①口口② |----|
77
①口口② |①---|
口口口口 |----|
口口口口 |②---|
口口口口 |----|
78
口口口口 |①---|
口②②口 |--②-|
口①①口 |----|
口口口口 |----|
79
①口口② |①---|
口口口口 |----|
口口口口 |②---|
口口口口 |----|
80
口口口口 |①---|
口口口口 |----|
口口口口 |②---|
①口口② |----|
81
②口口③ |①---|
②口口③ |----|
口①①口 |②---|
口口口口 |--③-|


不确定度: 0

最終更新:2012年11月07日 23:21