恋とキングコング
日向美ビタースイーツ♪

EXTREME

Level: 8
BPM: 158
Notes: 685

1
口口口口 |----|
口口口口 |----|
口口口口 |----|
口口口口 |----|
2
③⑧④③ |①---|
①口⑤① |②-③-|
口⑧⑥口 |---④⑤⑥|
口②⑦口 |⑦-⑧-|
3
③④⑧③ |--①-|
口⑤口口 |②-③-|
口⑥⑧② |---④⑤⑥|
①⑦口口 |⑦-⑧-|
4
③⑧④③ |--①-|
口口⑤口 |②-③-|
②⑧⑥口 |---④⑤⑥|
口口⑦① |⑦-⑧-|
5
④口口③ |--①-|
⑦口⑦口 |②-③-|
⑤口⑥口 |④-⑤-|
①口口② |⑥-⑦-|
6
口①③⑤ |①---|
口口④⑥ |②---|
口口③⑤ |③-④-|
②口②口 |⑤-⑥-|
7
④②口口 |----|
⑤③口口 |①---|
④②口口 |②-③-|
口①口① |④-⑤-|
8
口①口① |----|
⑤③②④ |①---|
口②③口 |②-③-|
④口口⑤ |④-⑤-|
9
①②口③ |---①|
⑩口口⑪ |②-③④|
⑧⑥⑦⑨ |⑤⑥⑦-|
口④⑤口 |⑧⑨⑩⑪|
10
②②口口 |①---|
口口④口 |②---|
口⑤口③ |③-④-|
①⑥⑥口 |⑤-⑥-|
11
口口口口 |--①-|
②⑤口② |--②-|
口③④口 |③-④-|
①⑥⑥① |⑤-⑥-|
12
口⑤④④ |--①-|
口口口② |②-③-|
口口口③ |④---|
口口口① |--⑤-|
13
口口口口 |--①-|
口②②口 |---②|
②①口② |----|
口②②口 |----|
14
②②口口 |①---|
口口口口 |②---|
口口口口
①口口口

口口口口
口口④口
口⑤口③ |③-④-|
⑥口⑥口 |⑤-⑥-|
15
口口②口 |--①-|
口③⑤① |②-③-|
⑦口④⑦ |④-⑤-|
口口⑥口 |⑥-⑦-|
16
口①①口 |----|
①口口① |①---|
口①①口 |----|
口口口口 |----|
17
①③①③ |--①-|
①①口口 |--②-|
①④①④ |③--④|
⑤②②② |--⑤-|
18
口口口口 |①-②-|
口②⑥口 |③-④-|
③⑦①⑤ |⑤-⑥-|
⑧④⑧口 |⑦-⑧-|
19
②口口口 |--①-|
口②④① |②---|
⑥③③⑥ |③-④-|
口⑤⑤口 |⑤-⑥-|
20
口口④④ |--①-|
口口口② |②-③-|
⑤口③⑤ |④---|
口口口① |--⑤-|
21
④④④④ |①-②-|
③①①③ |③-④-|
⑤②②⑤ |--⑤-|
③①①③ |----|
22
口口③口 |①-②-|
口②⑥④ |③-④-|
口⑦①⑤ |⑤-⑥-|
⑧口⑧口 |⑦-⑧-|
23
①口③口 |--①-|
④②口④ |②-③-|
口口口口 |④---|
⑤⑤⑥⑥ |⑤-⑥-|
24
口①①口 |----|
①②②① |①---|
口①①口 |----|
口口口口 |--②-|
25
①口口② |----|
③⑤⑥④ |----|
口⑦⑧口 |①②③④|
口口口口 |⑤⑥⑦⑧|
26
口口口④ |----|
③口③⑤ |①-②-|
口⑤口② |③-④-|
①口①⑥ |⑤-⑥-|
27
⑤口③⑤ |①--②|
③②口口 |--③-|
口④①② |--④-|
①⑥口口 |⑤-⑥-|
28
口①口口 |①--②|
口口②① |--③-|
②③口口 |----|
口口口③ |----|
29
口口①口 |①--②|
①②口口 |--③-|
口口③② |----|
③口口口 |----|
30
口口口④ |----|
③口③口 |①-②-|
⑤口⑤② |③-④-|
①口①⑥ |⑤-⑥-|
31
口③口口 |①--②|
口口②③ |--③-|
口①口口
②口①口

口口口口
口口⑥口
口⑤口口 |--④-|
口④口口 |⑤-⑥-|
32
①口口① |①---|
⑤②口⑤ |②-③-|
①⑤⑤① |--④-|
④③③④ |⑤---|
33
①①①① |①---|
口口口口 |②---|
口口口口 |----|
口②②口 |----|
34
①③③① |①---|
口口口口 |②-③-|
口口口口
口口口②

⑥口口⑥
⑥口口⑥
口⑤口口 |--④-|
口口④口 |⑤-⑥-|
35
口口口③ |----|
口口口口 |----|
口口②口 |--①-|
口口口① |②-③-|
36
口①口口 |①-②-|
口口口口 |--③-|
口②口口
③③口口

口⑤口⑤
④口口口
口口口口 |--④-|
口口口口 |--⑤-|
37
口口口口 |----|
口口口口 |----|
口口口口 |----|
口口口口 |----|
38
①③③① |①---|
口口⑥口 |②-③-|
口口②口 |--④-|
⑤口口④ |⑤-⑥-|
39
口③④口 |①-②-|
③口口④ |③-④-|
①口口②
口①②口

口口口口
口口⑤口
口⑥口口 |--⑤-|
口口⑦口 |⑥-⑦-|
40
②口口② |①--②|
口口口口 |--③-|
⑤⑤③口 |④---|
①④口① |--⑤-|
41
口③口口 |①-②-|
口⑥口口 |--③-|
口口⑤② |--④-|
口④①口 |⑤-⑥-|
42
口口口口 |①---|
①口②① |②-③-|
①口口①
③口③口

④⑥④⑥
口口口口
⑤口⑤口 |--④-|
口口口口 |⑤-⑥-|
43
⑥⑥⑤⑤ |①---|
③②③② |②-③-|
口①口① |--④-|
④④④④ |⑤-⑥-|
44
口口口口 |①---|
口②口② |②-③-|
①①①口
口③口③

④口④口
口口口口
口⑥口⑥ |--④-|
⑤口⑤口 |⑤-⑥-|
45
口②口② |①---|
①①①口 |②-③-|
③口③口
口口口口

④口④口
口⑤⑤口
口口口口 |--④-|
口⑥⑥口 |⑤-⑥-|
46
口口口口 |①---|
①口口① |--②-|
口口②口
①口口①

口口口③
口口口④
口口口③ |③---|
口口④口 |--④-|
47
口口②口 |--①-|
口口口口 |②---|
口口①口
口口口口

口口口口
口口③③
口口⑤⑤ |--③-|
口口④④ |④-⑤-|
48
口口口口 |①---|
①口口口 |--②-|
口②口口
①口口口

③口口口
④口口口
③口口口 |③---|
口④口口 |--④-|
49
口②口口 |--①-|
⑤③④⑥ |②---|
⑦①口⑧ |③④⑤⑥|
⑨口口⑩ |⑦⑧⑨⑩|
50
⑥口②⑥ |①---|
口⑤⑤口 |--②-|
④①①④ |③-④-|
口③③口 |⑤-⑥-|
51
口口口口 |----|
③①①③ |----|
④②②④ |①-②-|
③①①③ |③-④-|
52
口①②口 |--①-|
⑤③③⑤ |②---|
⑥④④⑥ |③-④-|
⑤③③⑤ |⑤-⑥-|
53
①口口② |--①-|
⑤③口④ |②-③-|
口口⑥口 |--④-|
口口口口 |⑤-⑥-|
54
口口①口 |①-②-|
口④④口 |--③-|
②口口③ |--④-|
⑤②③⑤ |--⑤-|
55
③口口③ |----|
①口口② |①-②-|
①口口② |--③-|
④口口④ |--④-|
56
口①①口 |①---|
②口⑤③ |②-③-|
②①①③ |--④-|
④口⑤口 |--⑤-|
57
口③③口 |--①-|
①③口③ |②---|
③③口② |③---|
③③口口 |----|
58
①口②① |①---|
口口口口 |--②-|
口口口口
口口口口

⑤口口⑤
口口口口
④⑤⑤④ |③-④-|
口③③口 |--⑤-|
59
口口口口 |----|
③①①③ |----|
④②②④ |①-②-|
③①①③ |③-④-|
60
口①②口 |--①-|
⑤③③⑤ |②---|
⑥④④⑥ |③-④-|
⑤③③⑤ |⑤-⑥-|
61
①口口② |--①-|
⑤③口④ |②-③-|
口口⑥口 |--④-|
口口口口 |⑤-⑥-|
62
口口①口 |①-②-|
④⑤口④ |--③-|
②口⑤③ |--④-|
口②③口 |--⑤-|
63
口口口口 |--①-|
②口①③ |--②-|
口①口口 |--③-|
③口口② |----|
64
①①①① |①---|
口口口口 |②-③-|
口②③口
口口口口

⑤⑤⑤⑤
口口口口
口口口口 |--④-|
④口口④ |--⑤-|
65
口口口口 |--①-|
③①④③ |②-③-|
②⑤口② |--④-|
口①⑥口 |⑤-⑥-|
66
①①⑤口 |①---|
②②⑥口 |②---|
③③口口 |③-④-|
⑤⑤口④ |⑤-⑥-|
67
①①口口 |①---|
②②⑤② |②-③-|
④④⑦口 |④-⑤-|
⑥⑥③口 |⑥-⑦-|
68
①①⑤① |①---|
②②⑦⑦ |②-③-|
④④口③ |④-⑤-|
⑥⑥口② |⑥-⑦-|
69
①①口口 |①-②-|
③③口口 |③---|
口口②②
口口口口

⑥口口⑥
口口口口
④④口口 |④---|
⑤⑤口口 |⑤-⑥-|
70
④①②④ |--①-|
②口口① |②---|
口口口口 |----|
③口口③ |③-④-|
71
口①②口 |--①-|
①⑥③② |②---|
②④口① |③④⑤-|
口⑦⑤口 |⑥-⑦-|
72
③④口③ |①---|
①口⑤① |②-③-|
口②口口 |--④-|
口⑥⑥口 |⑤-⑥-|
73
③口口④ |--①-|
①⑤⑤② |②---|
②⑤⑤① |③-④-|
④口口③ |--⑤-|
74
口①②口 |--①-|
①口口② |②---|
②口口① |----|
口②①口 |----|


不確定度: 0

最終更新:2013年05月16日 13:50