Switch On!
土屋アンナ

ADVANCED

Level: 6
BPM: 190
Notes: 336

1
口口口口 |----|
口口口口 |----|
口口口口 |----|
口口口口 |----|
2
口口口口 |①-②-|
①口口② |----|
口口口口 |----|
口口口口 |----|
3
②口口② |----|
①②②① |----|
口①①口 |①---|
口口口口 |②---|
4
口口口口 |①-②-|
口口口口 |----|
①口口② |----|
口口口口 |----|
5
②口口② |----|
①②②① |----|
口①①口 |①---|
口口口口 |②---|
6
口口口口 |①---|
口口口口 |----|
口口口口 |----|
口①①口 |----|
7
②口口② |----|
①②②① |----|
口①①口 |①---|
口口口口 |②---|
8
口口口口 |①---|
口口口口 |----|
口口口口 |----|
口①①口 |----|
9
②口口② |----|
口②②口 |----|
口①①口 |①---|
口口口口 |②---|
10
口①口口 |①---|
②口口口 |--②-|
口④⑤③ |③---|
口口口口 |④-⑤-|
11
④⑤⑥口 |①-②-|
口口口口 |--③-|
③口口口 |--④-|
口①②口 |⑤-⑥-|
12
口口口① |①-②-|
⑤④③② |③-④-|
口⑦⑥口 |⑤-⑥-|
口口⑧口 |⑦-⑧-|
13
⑤⑥口口 |①-②-|
⑦口口口 |③-④-|
口口口④ |--⑤-|
③①口② |⑥-⑦-|
14
口口⑥⑤ |①-②-|
口①口⑦ |③-④-|
②③口口 |--⑤-|
④口口口 |⑥-⑦-|
15
口口口口 |①---|
口口①口 |②-③-|
口口口口 |----|
口口③② |----|
16
口口口① |①---|
③口口② |②---|
②口口③ |③---|
①口口口 |----|
17
②③口② |①---|
口口口口 |----|
口①①口 |②---|
口口口口 |--③-|
18
口口①口 |①-②-|
口②③口 |③---|
口④⑤口 |④-⑤-|
口⑥⑦口 |⑥-⑦-|
19
⑤⑤④④ |①-②-|
③⑥口口 |③-④-|
①口口② |--⑤-|
口口口口 |--⑥-|
20
口口口口 |①-②-|
口口①口 |③-④-|
②⑥⑦③ |⑤---|
口④⑤口 |⑥-⑦-|
21
①③口② |①-②-|
口④④口 |③---|
口口口口 |④-⑤-|
⑤⑥⑥⑤ |--⑥-|
22
口口口口 |----|
②口口③ |----|
口①①口 |①---|
口口口口 |②-③-|
23
口口口口 |----|
口③④口 |----|
口口②口 |①-②-|
口①口口 |③-④-|
24
②①口② |①---|
口口口口 |----|
口③④口 |②---|
口口口口 |③-④-|
25
口口口口 |----|
②口口口 |----|
口口口① |----|
口口口口 |①-②-|
26
口口①① |①---|
口口口口 |----|
口口口口 |----|
口口口口 |----|
27
①口口口 |----|
②①口口 |----|
口②口口 |①---|
口口口口 |②---|
28
口②②口 |①---|
③口口③ |--②-|
①口口口 |----|
口①口口 |③---|
29
口口口口 |----|
口口口口 |①---|
口口口口 |----|
口①①口 |----|
30
⑤口口口 |①-②-|
③口口⑥ |--③-|
①口口④ |④---|
口口口② |⑤-⑥-|
31
口①口口 |--①-|
口口②口 |②-③-|
口③口口 |④---|
⑤口④口 |--⑤-|
32
口口口口 |①---|
口⑥口③ |②-③-|
②口⑤① |--④-|
口④口口 |⑤-⑥-|
33
口口①① |①---|
口口口口 |----|
口口口口
口口口口

口②②口
口口口口
口口口口 |----|
口口口口 |--②-|
34
口口口口 |----|
口②①③ |①---|
③①②口 |②---|
口口口口 |③---|
35
口口口口 |①---|
①⑥口口 |②-③-|
口口⑤① |--④-|
②④口③ |⑤-⑥-|
36
②②①口 |①---|
口口③③ |②---|
④④口口 |③---|
口口口口 |④---|
37
②口口③ |①---|
⑤口口口 |②-③-|
口④④口 |--④-|
口口①① |--⑤-|
38
口口口口 |①---|
口口口① |----|
口口口口 |----|
口口口口 |----|
39
②口口② |①---|
①②②① |--②-|
口①①口 |----|
口口口口 |----|
40
口口口口 |①---|
①口口② |②---|
口③④口 |③-④-|
口⑤口口 |--⑤-|
41
②③③② |①---|
口口口口 |②---|
口口口口 |----|
口口①口 |--③-|
42
口口口口 |----|
口②①③ |①---|
③①②口 |②---|
口口口口 |③---|
43
口口口口 |①---|
①⑥口口 |②-③-|
口口⑤① |--④-|
②④口③ |⑤-⑥-|
44
②②①口 |①---|
口口③③ |②---|
④④口口 |③---|
口口口口 |④---|
45
②口口③ |①---|
⑤口口口 |②-③-|
口④④口 |--④-|
口口①① |--⑤-|
46
口口口口 |①---|
口口口① |----|
口口口口 |----|
口口口口 |----|
47
②口口② |①---|
①②②① |--②-|
口①①口 |----|
口口口口 |----|
48
口口口口 |①---|
①口口② |②---|
口③④口 |③-④-|
口⑤口口 |--⑤-|
49
②口口② |①---|
口口口口 |②---|
口口口口 |----|
口口①口 |----|
50
口①①口 |①---|
②口口口 |②-③-|
④口口③ |--④-|
口口口⑤ |⑤---|
51
口口口口 |----|
口口④口 |--①-|
口③口口 |②---|
口①②口 |③-④-|
52
口①口口 |①---|
②口口③ |②-③-|
④口口⑤ |--④-|
口口口口 |⑤---|
53
口①①口 |①---|
口口口口 |----|
口口口口 |----|
口口口口 |----|
54
口①①口 |①---|
②口口口 |②-③-|
④口口③ |--④-|
口口口⑤ |⑤---|
55
口口口口 |----|
口口④口 |--①-|
口③口口 |②---|
口①②口 |③-④-|
56
口①口口 |①---|
②口口③ |②-③-|
④口口⑤ |--④-|
口口口口 |⑤---|
57
口①①口 |①---|
③口口② |--②-|
口口④口 |③---|
口⑤口口 |④-⑤-|
58
口口口口 |----|
口口口口 |----|
口口口口 |----|
口口口口 |----|
59
②口口② |----|
①②②① |----|
口①①口 |①---|
口口口口 |②---|
60
口口口口 |①-②-|
口口口口 |----|
①口口② |----|
口口口口 |----|
61
②口口② |----|
①②②① |----|
口①①口 |①---|
口口口口 |②---|
62
口口口口 |①---|
口口口口 |----|
口口口口 |----|
口①①口 |----|
63
②口口② |----|
①②②① |----|
口①①口 |①---|
口口口口 |②---|
64
口口口口 |①---|
口口口口 |----|
口口口口 |----|
口①①口 |----|
65
口口口口 |----|
①口口① |----|
②①①② |①---|
口②②口 |②---|
66
①口口① |①---|
口①①口 |----|
口口口口 |----|
口口口口 |----|

不確定度: 0

最終更新:2014年08月01日 01:29