HEART BEAT FORMULA
TAG

BASIC

Level: 5
BPM: 230
Notes: 255

1
口口口口 |----|
口口口口 |----|
口口口口 |----|
口口口口 |----|
2
①口口② |①---|
口口口口 |----|
口口口口 |②---|
口口口口 |----|
3
口①①口 |①---|
口②②口 |②---|
口③③口 |③---|
口④④口 |④---|
4
口口口口 |①---|
口口口口 |----|
口口口口 |②---|
②口口① |----|
5
口④④口 |①---|
口③③口 |②---|
口②②口 |③---|
口①①口 |④---|
6
①口口② |①---|
口口口口 |----|
口口口口 |②---|
口口口口 |----|
7
口①①口 |①---|
口②②口 |②---|
口③③口 |③---|
口④④口 |④---|
8
口口口口 |①---|
口口口口 |----|
口口口口 |②---|
②口口① |----|
9
口④④口 |①---|
口③③口 |②---|
口②②口 |③---|
口①①口 |④---|
10
①口口口 |①---|
口口口口 |----|
口口口口 |----|
口口口口 |----|
11
口口口① |①---|
口口口口 |----|
口口口口 |----|
口口口口 |----|
12
口口口口 |①---|
口①口口 |----|
口口口口 |----|
口口口口 |----|
13
口口口口 |①---|
口口①口 |----|
口口口口 |----|
口口口口 |----|
14
口口口口 |①---|
口口口口 |----|
口①②口 |②---|
口口口口 |----|
15
①口口口 |①---|
②口口口 |②---|
③口口口 |③---|
④口口口 |④---|
16
口口口口 |①---|
口口口口 |----|
口②①口 |②---|
口口口口 |----|
17
口口口④ |①---|
口口口③ |②---|
口口口② |③---|
口口口① |④---|
18
口口口口 |①---|
口口口口 |----|
口①②口 |②---|
口口口口 |----|
19
①口口口 |①---|
②口口口 |②---|
③口口口 |③---|
④口口口 |④---|
20
口口口口 |①---|
口口口口 |----|
口②①口 |②---|
口口口口 |----|
21
口口口④ |①---|
口口口③ |②---|
口口口② |③---|
口口口① |④---|
22
口口口口 |①---|
口口口口 |----|
①口口② |②---|
口口口口 |----|
23
口①口口 |①---|
口②口口 |②---|
口③口口 |③---|
口④口口 |④---|
24
口口口口 |①---|
口口口口 |----|
②口口① |②---|
口口口口 |----|
25
口口④口 |①---|
口口③口 |②---|
口口②口 |③---|
口口①口 |④---|
26
口口口口 |①---|
口口口口 |----|
①口口② |②---|
口口口口 |----|
27
口①口口 |①---|
口②口口 |②---|
口③口口 |③---|
口④口口 |④---|
28
口口口口 |①---|
口口口口 |----|
②口口① |②---|
口口口口 |----|
29
口口④口 |①---|
口口③口 |②---|
口口②口 |③---|
口口①口 |④---|
30
口口口口 |①---|
①口口口 |----|
口口口口 |----|
口口口口 |----|
31
口口口口 |①---|
口口口① |----|
口口口口 |----|
口口口口 |----|
32
口口口口 |①---|
口①①口 |----|
口②②口 |②---|
口口口口 |----|
33
口口口口 |①---|
口口口口 |----|
口口口口 |----|
口①①口 |----|
34
口口口口 |①---|
口口口口 |----|
①①口口 |----|
口口口口 |----|
35
口口口口 |①---|
口口口口 |----|
口口①① |----|
口口口口 |----|
36
口①①口 |①---|
口口口口 |----|
口口口口 |----|
口口口口 |----|
37
口口口口 |----|
口口口口 |----|
口口口口 |----|
口口口口 |----|
38
口口口口 |①---|
①口口口 |----|
口口口口 |----|
口口口口 |----|
39
口口口口 |①---|
口口口① |----|
口口口口 |----|
口口口口 |----|
40
口口口口 |①---|
口口口口 |----|
口②②口 |②---|
口①①口 |----|
41
口②②口 |①---|
口①①口 |----|
口口口口 |②---|
口口口口 |----|
42
口口口口 |①---|
口口口口 |----|
口①①口 |----|
口口口口 |----|
43
①口口① |①---|
口口口口 |----|
口口口口 |----|
口口口口 |----|
44
口口口口 |①---|
口①①口 |----|
口口口口 |----|
口口口口 |----|
45
口①①口 |①---|
口口口口 |----|
②③口口 |②---|
口口口口 |③---|
46
口口口口 |①---|
口口④③ |②---|
口口①② |③---|
口口口口 |④---|
47
口口③② |①---|
口①口口 |----|
口口口口 |②---|
口口口口 |③---|
48
②①口口 |①---|
③④口口 |②---|
口口口口 |③---|
口口口口 |④---|
49
口口口口 |①---|
口口①② |②---|
③④口口 |③---|
口口口口 |④---|
50
口口口口 |①---|
口口口口 |②---|
口口口口 |③---|
④③②① |④---|
51
口口口口 |①---|
口口口口 |②---|
④③②① |③---|
口口口口 |④---|
52
口口口口 |①---|
口①①口 |----|
口口口口 |----|
口口口口 |----|
53
①口口口 |----|
口口口口 |----|
口口口口 |----|
口口口口 |①---|
54
口口口① |①---|
口②③口 |----|
口口口口 |②---|
口口口口 |③---|
55
口口口口 |①---|
口口口① |----|
口口口口 |②---|
口口③② |③---|
56
口口口口 |①---|
口口口口 |②---|
③④口口 |③---|
②①口口 |④---|
57
口口口口 |①---|
口口口口 |②---|
口口①② |----|
口口口口 |----|
58
口口口口 |①---|
口口口口 |②---|
口③④口 |③---|
口①②口 |④---|
59
口③④口 |①---|
口①②口 |②---|
口口口口 |③---|
口口口口 |④---|
60
①口口① |①---|
口口口口 |----|
口口口口 |----|
口口口口 |----|
61
口口口口 |----|
口口口口 |----|
①②口口 |①---|
口口口口 |②---|
62
口口口口 |①---|
口口④③ |②---|
口口①② |③---|
口口口口 |④---|
63
口口③② |①---|
口①口口 |----|
口口口口 |②---|
口口口口 |③---|
64
②①口口 |①---|
③④口口 |②---|
口口口口 |③---|
口口口口 |④---|
65
口口口口 |①---|
口口①② |②---|
③④口口 |③---|
口口口口 |④---|
66
口口口口 |①---|
口口口口 |②---|
口口口口 |③---|
④③②① |④---|
67
口口口口 |①---|
口口口口 |②---|
④③②① |③---|
口口口口 |④---|
68
口口口口 |①---|
口①①口 |----|
口口口口 |----|
口口口口 |----|
69
①口口口 |----|
口口口口 |----|
口口口口 |----|
口口口口 |①---|
70
口口口① |①---|
口②③口 |----|
口口口口 |②---|
口口口口 |③---|
71
口口口口 |①---|
口口口① |----|
口口口口 |②---|
口口③② |③---|
72
口口口口 |①---|
口口口口 |②---|
③④口口 |③---|
②①口口 |④---|
73
口口口口 |①---|
口口口口 |②---|
口口①② |----|
口口口口 |----|
74
口口口口 |①---|
口口口口 |②---|
口③④口 |③---|
口①②口 |④---|
75
口③④口 |①---|
口①②口 |②---|
口口口口 |③---|
口口口口 |④---|
76
①口口① |①---|
口口口口 |----|
口口口口 |----|
口口口口 |----|
77
口口口口 |①---|
口口口口 |----|
口①①口 |----|
口口口口 |----|
78
①①①① |①---|
口口口口 |----|
口口口口 |----|
口口口口 |----|
79
口口口口 |----|
口口口口 |----|
口口口口 |----|
口口口口 |----|
80
口口口口 |----|
口口口口 |----|
口口口口 |----|
口口口口 |----|
81
口口口口 |----|
口口口口 |----|
口口口口 |----|
口口口口 |----|
82
口口口口 |①---|
口口口口 |----|
口②口口 |②---|
①口口口 |----|
83
口口口② |①---|
口口①口 |----|
口口口口 |②---|
口口口口 |----|
84
口①①口 |①---|
口口口口 |----|
口口口口 |----|
口口口口 |----|
85
口口口口 |----|
口口口口 |----|
口口口口 |----|
口口口口 |----|
86
口口口口 |①---|
口口口口 |----|
口口②口 |②---|
口口口① |----|
87
②口口口 |①---|
口①口口 |----|
口口口口 |②---|
口口口口 |----|
88
口①②口 |①---|
口口口口 |----|
口口口口 |②---|
口口口口 |----|
89
口口口① |①---|
口口②口 |----|
口口口口 |②---|
口口口口 |----|
90
口口口口 |①---|
口口口口 |----|
口①口口 |②---|
②口口口 |----|
91
口口口口 |①---|
口口口口 |----|
口口口口 |②---|
口①②口 |----|
92
口口口口 |①---|
口口口口 |----|
口口口口 |----|
口口口① |----|
93
口口口口 |----|
口②②口 |----|
①②②① |①---|
口口口口 |--②-|


不確定度: 0

最終更新:2013年02月26日 21:40