HEART BEAT FORMULA
TAG

ADVANCED

Level: 6
BPM: 230
Notes: 386

1
口口口口 |----|
口口口口 |----|
口口口口 |----|
口口口口 |----|
2
口①口口 |①---|
口口②口 |②---|
口③口口 |③---|
口口④口 |④---|
3
口②③口 |①---|
口口口④ |②-③-|
①口口口 |--④-|
口口口⑤ |--⑤-|
4
口口口口 |----|
口①口口 |①---|
口口②口 |②---|
口③口口 |③---|
5
口③②口 |①---|
④口口口 |②-③-|
口口口① |--④-|
⑤口口口 |--⑤-|
6
口口口口 |----|
口口①口 |①---|
口②口口 |②---|
口口③口 |③---|
7
口②③口 |①---|
口口口④ |②-③-|
①口口口 |--④-|
口口口⑤ |--⑤-|
8
口口口口 |----|
口①口口 |①---|
口口②口 |②---|
口③口口 |③---|
9
④口口① |①---|
口③②口 |②-③-|
口口口口 |--④-|
口口口口 |----|
10
口口口口 |①---|
②口口口 |----|
口口口口 |----|
①口口口 |--②-|
11
口口口口 |----|
口口口口 |----|
口口口口 |----|
口口口口 |----|
12
口口口口 |①---|
口口口① |----|
口口口口 |----|
口口口② |--②-|
13
口口口口 |----|
口口口口 |----|
口口口口 |----|
口口口口 |----|
14
③口口口 |①---|
口②口口 |②---|
口口口口 |--③-|
①口口口 |----|
15
口①口口 |①---|
②口口口 |--②-|
口③口口 |----|
口口口口 |③---|
16
口口口② |----|
口口①口 |①---|
口口口口 |--②-|
口口口口 |----|
17
口口①口 |①---|
口口口② |--②-|
口口③口 |----|
口口口口 |③---|
18
②口口口 |----|
口①口口 |①---|
口口口口 |--②-|
口口口口 |----|
19
口①口口 |①---|
②口口口 |--②-|
口③口口 |----|
口口口口 |③---|
20
口口口口 |----|
口口口② |①---|
口口①口 |--②-|
口口口口 |----|
21
口口③② |①---|
口口①口 |--②-|
口口口口 |----|
口口口口 |③---|
22
①口口口 |①---|
口口口口 |②---|
口口③口 |--③-|
口口口② |----|
23
口口口口 |①---|
口口②① |--②-|
口口口③ |----|
口口口口 |③---|
24
口口口口 |----|
口口口口 |①---|
口②口口 |--②-|
①口口口 |----|
25
口口口口 |①---|
①②口口 |--②-|
③口口口 |----|
口口口口 |③---|
26
口口口口 |----|
口口口口 |①---|
口口②口 |--②-|
口口口① |----|
27
口口口口 |①---|
口口②① |--②-|
口口口③ |----|
口口口口 |③---|
28
①①口口 |----|
口口②② |①---|
口口口口 |--②-|
口口口口 |----|
29
口口口口 |①---|
口口口口 |--②-|
①①口口 |----|
③③②② |③---|
30
口①①口 |①---|
口口④口 |----|
口③口口 |--②-|
口口②口 |③-④-|
31
口①口② |----|
口口口口 |----|
口口口口 |①---|
口口口口 |②---|
32
①口口口 |①---|
口口②口 |--②-|
口③口口 |--③-|
口口④口 |--④-|
33
口口口口 |----|
口口口口 |----|
口口②口 |----|
口①口口 |①-②-|
34
口口口口 |①---|
口①口② |----|
口口口口 |②---|
口口口口 |----|
35
口口口口 |①---|
①口口口 |②---|
口口②口 |③---|
口③④口 |④---|
36
口②③口 |①---|
口口口口 |--②-|
口①口口 |③---|
口口口口 |----|
37
口口口口 |----|
口口口口 |----|
①口口② |--①-|
口口口口 |②---|
38
口①口口 |①---|
口④口口 |----|
口口③口 |--②-|
口②口口 |③-④-|
39
口口口口 |----|
口口②口 |----|
①口口口 |①---|
口口口口 |②---|
40
口①口② |①---|
③口口口 |--②-|
口口口④ |--③-|
口口口口 |--④-|
41
口口口口 |--①-|
口①口口 |②-③-|
口口②口 |----|
口③④口 |④---|
42
口③②口 |①---|
口口口口 |----|
①口口口 |----|
口口口口 |②-③-|
43
口口口口 |----|
口口口口 |----|
口口②口 |①---|
口①口口 |②---|
44
口口②口 |①---|
③①口口 |----|
口口口口 |----|
口口口口 |②-③-|
45
口口口② |----|
口口③口 |--①-|
口④口口 |②-③-|
⑤①口口 |④-⑤-|
46
口⑤⑤口 |①---|
口口口口 |②-③-|
②口口③ |--④-|
口④④① |--⑤-|
47
口口口⑤ |--①-|
①口④① |----|
口③口口 |②-③-|
②口口口 |④-⑤-|
48
①口口口 |①---|
③口口② |②-③-|
⑤口口⑤ |--④-|
口④④口 |--⑤-|
49
②①①口 |--①-|
口③口口 |----|
口口④口 |②-③-|
口口口⑤ |④-⑤-|
50
口口口口 |①---|
口口口口 |--②-|
口③口口 |----|
①口②口 |③---|
51
②口①口 |①---|
口口口口 |----|
口口口口 |②---|
口口口口 |----|
52
口①①口 |①---|
口口口口 |②-③-|
②口口③ |----|
口口口口 |----|
53
口口口口 |----|
口口口口 |----|
口①①口 |----|
口口口口 |①---|
54
②①①② |①---|
③口口③ |--②-|
④口口④ |--③-|
口口口口 |--④-|
55
口口口④ |----|
口口③口 |----|
口②口口 |①-②-|
①口口口 |③-④-|
56
①口口口 |①---|
③口口② |②-③-|
口⑤⑤口 |--④-|
口④④口 |--⑤-|
57
口口口口 |--①-|
口③③口 |②---|
①口口② |----|
口口口口 |③---|
58
①②②① |①---|
口口口口 |----|
口口口口 |----|
口口口口 |②---|
59
口口口口 |①---|
口①①口 |--②-|
口③③口 |----|
②口口② |③---|
60
口②③口 |①---|
①口口① |②-③-|
口口口口 |----|
口口口口 |----|
61
口口口② |----|
口口③口 |--①-|
口④口口 |②-③-|
⑤①口口 |④-⑤-|
62
口⑤⑤口 |①---|
口口口口 |②-③-|
②口口③ |--④-|
口④④① |--⑤-|
63
口口口⑤ |--①-|
①口④① |----|
口③口口 |②-③-|
②口口口 |④-⑤-|
64
①口口口 |①---|
③口口② |②-③-|
⑤口口⑤ |--④-|
口④④口 |--⑤-|
65
②①①口 |--①-|
口③口口 |----|
口口④口 |②-③-|
口口口⑤ |④-⑤-|
66
口口口口 |①---|
口口口口 |--②-|
口③口口 |----|
①口②口 |③---|
67
②口①口 |①---|
口口口口 |----|
口口口口 |②---|
口口口口 |----|
68
⑤口口⑤ |①-②-|
口口口口 |③-④-|
口①②口 |--⑤-|
⑥③④⑥ |--⑥-|
69
口口口口 |--①-|
②①①③ |--②-|
②④④③ |③---|
口口口口 |④---|
70
②①①② |①---|
③口口③ |--②-|
④口口④ |--③-|
口口口口 |--④-|
71
口口口④ |----|
口口③口 |----|
口②口口 |①-②-|
①口口口 |③-④-|
72
①口口口 |①---|
③口口② |②-③-|
口⑤⑤口 |--④-|
口④④口 |--⑤-|
73
口口口口 |--①-|
口③③口 |②---|
①口口② |----|
口口口口 |③---|
74
①②②① |①---|
口口口口 |----|
口口口口 |----|
口口口口 |②---|
75
口口口口 |①---|
口①①口 |--②-|
口③③口 |----|
②口口② |③---|
76
口②③口 |①---|
①口口① |----|
口口口口 |----|
口口口口 |②-③-|
77
口口口口 |----|
口口口口 |----|
口②②口 |①---|
口①①口 |②---|
78
②口口② |①---|
口①①口 |--②-|
口口口口 |----|
口口口口 |----|
79
口口口口 |----|
口口口口 |----|
口口口口 |----|
口口口口 |----|
80
口口口口 |----|
口口口口 |----|
口口口口 |----|
口口口口 |----|
81
口口口口 |----|
口口口口 |----|
口口口口 |----|
口口口口 |----|
82
口④④口 |①---|
口③②口 |--②-|
口口口口 |③---|
口①口口 |--④-|
83
口口口口 |--①-|
②口口② |----|
③①①③ |②---|
口口口口 |③---|
84
口①⑤口 |①-②-|
口⑥②口 |③-④-|
口③口口 |----|
口口④口 |⑤-⑥-|
85
口口口口 |①-②-|
③口口③ |----|
④口①④ |③---|
口②口口 |④---|
86
口②②口 |①---|
口③③口 |--②-|
口④④口 |--③-|
①口口① |--④-|
87
口口口口 |--①-|
③口口② |----|
②口口③ |②---|
口①①口 |③---|
88
口②②口 |①---|
口③③④ |--②-|
④口口口 |--③-|
①口口① |--④-|
89
口②②口 |--①-|
①口口口 |----|
口③③① |②---|
口口口口 |③---|
90
口口口口 |①---|
口③口口 |--②-|
①③口② |----|
①口口② |③---|
91
②口口③ |--①-|
②口①③ |----|
口口①口 |②---|
口口口口 |③---|
92
口①①口 |①---|
口口口口 |--②-|
口②②口 |----|
口③③口 |③---|
93
口③④口 |--①-|
①③④① |----|
②口口② |②---|
口口口口 |③-④-|
94
口口口口 |----|
口口口口 |----|
口口口口 |----|
口口口口 |----|
95
口口口口 |----|
口口口口 |----|
口口口口 |----|
口口口口 |----|
96
口口口口 |----|
口口口口 |----|
口口口口 |----|
口口口口 |----|
97
口口口口 |----|
口口口口 |----|
口①②口 |①-②-|
口③④口 |③-④-|


不確定度: 0

最終更新:2013年02月26日 21:39