マジLOVE1000%
ST☆RISH

BASIC

Level: 2
BPM: 129
Notes: 171

1
口口口口 |----|
①口口口 |----|
口口口口 |----|
口口口口 |①---|
2
口口口口 |①---|
口②②① |----|
口口口口 |②---|
口口口口 |----|
3
口口口口 |①---|
②口口② |----|
口①①口 |②---|
口口口口 |----|
4
①口口口 |①---|
口口口口 |----|
口口口口 |----|
口口口口 |----|
5
口①口口 |①---|
口口口口 |----|
口口口口 |----|
口口口口 |----|
6
口口①口 |①---|
口口口口 |----|
口口口口 |----|
口口口口 |----|
7
口口口① |①---|
口口口② |----|
口口口口 |②---|
口口口口 |----|
8
口口口口 |①---|
口口口口 |----|
口口口① |----|
口口口口 |----|
9
口口口口 |①---|
口口口口 |----|
口口口口 |----|
口口口① |----|
10
口口口口 |①---|
口口口口 |----|
口口口口 |----|
口口①口 |----|
11
口口口口 |①---|
口口口口 |----|
口口口口 |②---|
②①口口 |----|
12
口口口口 |----|
口口口口 |----|
口口口口 |----|
口口口口 |----|
13
口①①口 |----|
口②②口 |①---|
口③③口 |②---|
口口口口 |③---|
14
口口口口 |①---|
③口口口 |②---|
②口口口 |③---|
①口口口 |----|
15
口口口口 |①---|
口口口③ |②---|
口口口② |③---|
口口口① |----|
16
口口口口 |①---|
口口口口 |②---|
口③④口 |③---|
口①②口 |④---|
17
口③④口 |①---|
口①②口 |②---|
口口口口 |③---|
口口口口 |④---|
18
③口口口 |①---|
②口口口 |②---|
①口口口 |③---|
口口口口 |----|
19
口口口③ |①---|
口口口② |②---|
口口口① |③---|
口口口口 |----|
20
口①①口 |①---|
口②②口 |----|
口口口口 |②---|
口口口口 |----|
21
口口口口 |①---|
口口口口 |----|
①口口① |②---|
②口口② |----|
22
口口口口 |①---|
口口口口 |----|
口②②口 |②---|
口①①口 |----|
23
口口口口 |①---|
①口口① |----|
口口口口 |----|
口口口口 |----|
24
②口口② |①---|
口口口口 |--②-|
口①①口 |----|
口口口口 |----|
25
口口口口 |----|
口①②口 |①---|
口口口口 |②---|
口口口口 |----|
26
口口口口 |①---|
口口口口 |②---|
口口①口 |③---|
口③②口 |----|
27
口②①口 |----|
口口口口 |①---|
口口口口 |②---|
口口口口 |----|
28
口口口口 |①---|
口①口口 |②---|
口②口口 |③---|
口③④口 |④---|
29
口口口口 |----|
口口口口 |①---|
口口口口 |②---|
①口口② |----|
30
口口口口 |①---|
口口口口 |②---|
口①②③ |③---|
口④口口 |④---|
31
口口口口 |①---|
口④口口 |②---|
②口口③ |③---|
口口①口 |④---|
32
③口口口 |①---|
②口口② |----|
口①①口 |②---|
口口口口 |③---|
33
口①③② |①---|
口口口口 |②---|
口口口口 |③---|
口口口口 |----|
34
口口口口 |①---|
口口口④ |②---|
①②③口 |③---|
口口口口 |④---|
35
口口口口 |①---|
②③①口 |②---|
口口口口 |③---|
口口口口 |----|
36
口③口口 |①---|
口②②口 |----|
口①①口 |②---|
口口口口 |③---|
37
①口口口 |①---|
②口口口 |②---|
③口口口 |③---|
④口口口 |④---|
38
口口口① |①---|
口口口② |②---|
口口口③ |③---|
口口口④ |④---|
39
口口口口 |①---|
口口口口 |----|
口①②口 |②---|
口口口口 |----|
40
口②②口 |①---|
口①①口 |----|
口口口口 |②---|
口口口口 |----|
41
①口口① |①---|
口口口口 |----|
口口口口 |----|
口口口口 |----|
42
口①①口 |----|
口②②口 |①---|
口③③口 |②---|
口口口口 |③---|
43
口口口口 |①---|
③口口口 |②---|
②口口口 |③---|
①口口口 |----|
44
口口口口 |①---|
口口口③ |②---|
口口口② |③---|
口口口① |----|
45
口口口口 |①---|
口口口口 |②---|
口③④口 |③---|
口①②口 |④---|
46
口③④口 |①---|
口①②口 |②---|
口口口口 |③---|
口口口口 |④---|
47
③口口口 |①---|
②口口口 |②---|
①口口口 |③---|
口口口口 |----|
48
口口口③ |①---|
口口口② |②---|
口口口① |③---|
口口口口 |----|
49
口①①口 |①---|
口②②口 |----|
口口口口 |②---|
口口口口 |----|
50
口口口口 |①---|
口口口口 |----|
①口口① |②---|
②口口② |----|
51
口口口口 |①---|
口口口口 |----|
口②②口 |②---|
口①①口 |----|
52
口口口口 |①---|
①口口① |----|
口口口口 |----|
口口口口 |----|
53
②口口② |①---|
③口口口 |--②-|
口①①口 |----|
口口口口 |③---|
54
口口口口 |①---|
口②②① |----|
口口口口 |②---|
口口口口 |----|
55
口口口口 |①---|
②口口② |----|
口①①口 |②---|
口口口口 |----|

不確定度: 0

最終更新:2014年08月01日 02:35