マジLOVE1000%
ST☆RISH

ADVANCED

Level: 7
BPM: 129
Notes: 383

1
口①②口 |----|
口口口口 |----|
口口口口 |----|
口口口口 |①-②-|
2
口口口口 |①-②-|
口①②口 |③-④-|
口③④口 |⑤-⑥-|
⑦⑤⑥⑧ |⑦-⑧-|
3
①口口① |①--②|
②口口② |--③-|
③⑤⑤③ |④---|
④⑤⑤④ |⑤---|
4
①口①① |①---|
①口①① |----|
口口口口 |----|
口口口口 |----|
5
口口①① |①---|
口口①① |----|
口口口① |----|
口口①① |----|
6
口①口口 |①---|
①口①口 |----|
口①口① |----|
口口①口 |----|
7
①①②② |①---|
口①②口 |----|
口①②② |②---|
口①②② |----|
8
①①口口 |①---|
①口口口 |----|
口①口口 |----|
①①口口 |----|
9
口①口① |①---|
口①①① |----|
口口口① |----|
口口口口 |----|
10
口口①口 |①---|
口口口① |----|
①口①口 |----|
口①口口 |----|
11
①①口② |①---|
口①②② |----|
①口口② |②---|
①①口② |----|
12
口口口口 |----|
口口口口 |----|
口口口口 |----|
口口口口 |----|
13
口口口口 |----|
①口口① |①---|
口③③口 |②---|
口②②口 |③---|
14
①口口② |①-②-|
口③④口 |③-④-|
⑤口口口 |⑤---|
口口口口 |----|
15
口①②口 |①-②-|
③口口④ |③-④-|
口⑤口口 |⑤---|
口口口口 |----|
16
口口口口 |①-②-|
⑦口口⑧ |③-④-|
③⑤⑥④ |⑤-⑥-|
口①②口 |⑦-⑧-|
17
⑤①②⑥ |①-②-|
⑤③④⑥ |③-④-|
口口口口 |--⑤-|
口口口口 |⑥---|
18
口①②口 |①-②-|
③口口④ |③-④-|
口⑤口口 |⑤---|
口口口口 |----|
19
①口口② |①-②-|
⑧③④⑧ |③-④-|
⑤⑦⑦口 |⑤-⑥-|
口⑥⑥口 |⑦-⑧-|
20
③①②③ |--①-|
口①②口 |②---|
④口口④ |③---|
口口口口 |--④-|
21
②口口② |--①-|
①口口① |②---|
口口口口
口口口口

口③③口
④③③④
口口口口 |③---|
口口口口 |--④-|
22
口口口口 |--①-|
口口口口 |②---|
口①①口
口②②口

③口口③
⑤口口⑤
口④④口 |③---|
口口口口 |④-⑤-|
23
口口口口 |----|
口口口口 |----|
口口口口 |----|
口口口口 |----|
24
口口口口 |①--②|
②口口① |--③-|
口③③口 |----|
①口口② |----|
25
口口口口 |----|
⑤口口⑥ |①-②-|
口③④口 |③-④-|
①口口② |⑤-⑥-|
26
③①②④ |①-②-|
口口口口 |③-④-|
口口口口
口口口口

口⑤口口
口口⑥口
口⑦口口 |--⑤-|
口口口口 |⑥-⑦-|
27
口口口口 |----|
口⑤⑥口 |①-②-|
③口口④ |③-④-|
口①②口 |⑤-⑥-|
28
①②③口 |①--②|
④口口④ |--③-|
⑤口口⑤ |④---|
口口口口 |⑤---|
29
①口口② |----|
③口口④ |①-②-|
⑤口口⑥ |③-④-|
口口口口 |⑤-⑥-|
30
口⑤⑥口 |①-②-|
口口口口 |③-④-|
口口口口 |----|
①③④② |⑤-⑥-|
31
口口口口 |①-②-|
口①②口 |③-④-|
口③④口 |⑤-⑥-|
⑦⑤⑥⑧ |⑦-⑧-|
32
①⑤⑤① |①--②|
②口口② |--③-|
③口口③ |④---|
④口口④ |⑤---|
33
口口口口 |①---|
①④口口 |②---|
口口口③ |③---|
口②②口 |--④-|
34
口口口口 |①-②-|
口口①⑥ |③-④-|
④②③口 |--⑤-|
口口口⑤ |⑥---|
35
②口①① |①---|
口⑤口口 |②---|
口口④口 |③---|
③③口口 |--④⑤|
36
③⑤①③ |①--②|
②口口② |--③-|
口口④口 |----|
口口口口 |④-⑤-|
37
口口①⑦ |--①-|
口②口口 |②-③-|
口口③口 |④-⑤⑥|
⑥④口⑤ |--⑦-|
38
口①口口 |--①-|
口口②口 |②-③-|
口③口口 |④-⑤⑥|
⑤口④⑥ |----|
39
口①①口 |①-②③|
④②③④ |----|
⑤口口⑥ |④-⑤⑥|
口口口口 |----|
40
口口口口 |①-②③|
口④④口 |--④-|
口①①口
②口口③

口口口口
口口口口
⑥⑦⑦⑥ |⑤--⑥|
口⑤⑤口 |--⑦-|
41
②①①③ |①-②③|
②口口③ |----|
口口口口 |----|
口口口口 |----|
42
口口口口 |----|
①口口① |①---|
口③③口 |②---|
口②②口 |③---|
43
①口口② |①-②-|
口③④口 |③-④-|
⑤口口口 |⑤---|
口口口口 |----|
44
口①②口 |①-②-|
③口口④ |③-④-|
口⑤口口 |⑤---|
口口口口 |----|
45
口口口口 |①-②-|
⑦口口⑧ |③-④-|
③⑤⑥④ |⑤-⑥-|
口①②口 |⑦-⑧-|
46
⑤①②⑥ |①-②-|
⑤③④⑥ |③-④-|
口口口口 |--⑤-|
口口口口 |⑥---|
47
口①②口 |①-②-|
③口口④ |③-④-|
口⑤口口 |⑤---|
口口口口 |----|
48
①口口② |①-②-|
⑧③④⑧ |③-④-|
⑤⑦⑦口 |⑤-⑥-|
口⑥⑥口 |⑦-⑧-|
49
③①②③ |--①-|
口①②口 |②---|
④口口④ |③---|
口口口口 |--④-|
50
②口口② |--①-|
①口口① |②---|
口口口口
口口口口

口③③口
④③③④
口口口口 |③---|
口口口口 |--④-|
51
口口口口 |--①-|
口口口口 |②---|
口①①口
口②②口

③口口③
⑤口口⑤
口④④口 |③---|
口口口口 |④-⑤-|
52
口口口口 |----|
口口口口 |----|
口口口口 |----|
口口口口 |----|
53
口④⑤口 |①--②|
②口口① |--③-|
口③③口 |----|
①口口② |④-⑤-|
54
口口口口 |①-②-|
口①②口 |③-④-|
口③④口 |⑤-⑥-|
⑦⑤⑥⑧ |⑦-⑧-|
55
①口口① |①--②|
②口口② |--③-|
③口口③ |④---|
④口口④ |----|

不確定度: 0

最終更新:2014年08月01日 02:35