Synchrogazer


ADVANCED

Level: 7
BPM: 159
Notes: 509

1
口口口口 |----|
口口口口 |----|
口口口口 |----|
口口口口 |----|
2
口⑤②口 |①-②-|
口④①口 |③-④-|
口口口⑧ |⑤-⑥-|
口⑥③⑦ |--⑦⑧|
3
口口口② |①-②-|
①⑤④口 |③-④⑤|
③口⑥口 |-⑥⑦-|
⑧口⑦⑨ |⑧-⑨-|
4
口①③⑨ |①-②-|
⑧口口口 |③-④⑤|
⑦②④口 |-⑥-⑦|
口⑤口⑥ |⑧-⑨-|
5
口口⑤⑧ |①-②-|
⑥④②口 |③-④⑤|
⑦⑨口口 |-⑥⑦-|
口③①口 |⑧-⑨-|
6
口①口口 |①-②③|
口口口② |--④-|
④口口③
口口口口

⑥⑥口口
口口⑤口
口口口口 |⑤---|
口口口口 |⑥---|
7
口口口口 |--①-|
②口口① |--②-|
②④④① |③---|
口③③口 |④---|
8
②①①② |①---|
③口口③ |--②-|
口口口口 |----|
口口口口 |③---|
9
口①①口 |--①-|
口口口口 |----|
口③③口 |②---|
口②②口 |③---|
10
口②②口 |①---|
③①①③ |--②-|
口口口口 |----|
口口口口 |③---|
11
口口口口 |--①-|
口②②口 |----|
①③③① |②---|
口口口口 |③---|
12
口口④口 |①-②-|
口口⑤② |③-④⑤|
③口口① |----|
口口口口 |----|
13
口④口口 |①-②-|
②⑤口口 |③-④⑤|
①口口③ |----|
口口口口 |----|
14
⑤⑤⑤⑤ |①--②|
④口④口 |--③-|
口③口③ |④---|
②①②① |⑤---|
15
⑤⑦⑥⑥ |①-②-|
⑤⑦⑧⑧ |③-④-|
①③④④ |⑤-⑥-|
①③②② |⑦-⑧-|
16
口口口口 |①---|
口口口口 |---②|
②口口口
①②口①

口⑤④口
⑤口口④
口⑥口③ |-③-④|
⑥口③口 |-⑤-⑥|
17
③⑦⑥② |-①-②|
⑦③②⑥ |-③-④|
④⑧①⑤ |-⑤-⑥|
⑧④⑤① |-⑦-⑧|
18
④⑥⑤③ |--①-|
口②口口 |②-③-|
口口①口 |④-⑤⑥|
口⑦口口 |--⑦-|
19
④口⑦③ |①-②-|
⑤口⑥② |③-④-|
口①口口 |⑤-⑥⑦|
口口口口 |----|
20
口口口口 |----|
①口口② |①---|
①口口② |--②-|
口口口口 |----|
21
口口口口 |①---|
口口口口 |----|
口①①口 |----|
口①①口 |----|
22
口口口③ |--①-|
口②口口 |②-③-|
口口①口
口口口口

④⑥⑤口
口口口口
口口⑧口 |④-⑤⑥|
口⑦口口 |--⑦⑧|
23
④口⑦③ |①-②-|
⑤①⑥② |③-④-|
口口口口 |⑤-⑥⑦|
口口口口 |----|
24
口口口口 |----|
①口口② |①---|
①口口② |--②-|
口口口口 |----|
25
口口口口 |①---|
口口口口 |----|
口①①口
口①①口

口口②口
口口③口
口③口口 |----|
口②口口 |②-③-|
26
口④⑤口 |①--②|
②①口② |--③-|
②口①② |④---|
口口③口 |⑤---|
27
④⑤口口 |①--②|
口②②口 |--③-|
口③③口 |----|
口①口口 |--④⑤|
28
口口口口 |①--②|
⑥口①④ |--③-|
⑤口口③ |④--⑤|
口口口② |--⑥-|
29
①口口② |①--②|
口③③口 |--③-|
口口口口
口口口口

④口口④
口口口口
口口口口 |----|
口口口口 |--④-|
30
⑥④④⑥ |--①-|
②①②① |②-③-|
口③口③ |④--⑤|
⑤口⑤口 |--⑥-|
31
⑥④④⑥ |--①-|
③口③口 |②-③-|
①②①② |④--⑤|
口⑤口⑤ |--⑥-|
32
口口口口 |----|
④口①④ |--①②|
⑤②口⑤ |③--④|
口口③口 |--⑤-|
33
③口口① |----|
口③①口 |①---|
口口②口 |②---|
口口口② |③---|
34
口口口口 |①---|
口口口口 |----|
口①口口 |----|
①口口口 |----|
35
③③①① |①---|
口⑥口口 |②---|
口口⑤口 |③---|
④④②② |④-⑤⑥|
36
②②⑤⑤ |①---|
口口①口 |②-③-|
口口口口 |--④-|
④④③③ |--⑤-|
37
口口口口 |----|
口口口口 |----|
口口②口 |----|
口口①口 |①-②-|
38
口②③口 |①---|
口④①口 |②-③-|
口⑤口口 |--④-|
口口口口 |--⑤-|
39
口口口口 |--①-|
口口口口 |②---|
口口口口 |----|
口①②口 |----|
40
①口口① |①②--|
②口口② |--③④|
口③③口 |----|
口④④口 |----|
41
口口②④ |①-②③|
⑥⑤②④ |-④⑤-|
①③口口 |--⑥-|
⑧口口⑦ |⑦-⑧-|
42
④②口口 |①-②③|
④②⑤⑥ |-④⑤-|
口口③① |--⑥-|
⑦口口⑧ |⑦-⑧-|
43
口①②口 |①---|
③口口④ |②---|
④⑤⑤③ |③--④|
口②①口 |--⑤-|
44
口口口口 |①---|
口①①口 |----|
③③口口 |----|
②②口口 |②-③-|
45
④⑤②② |①--②|
④⑤①① |--③-|
口口口口 |----|
口口③③ |④-⑤-|
46
口口②② |①--②|
口口口口 |--③-|
口口①① |----|
③③④④ |--④-|
47
②②⑤⑤ |①--②|
③③⑥⑥ |--③-|
④④①① |④--⑤|
口口口口 |--⑥-|
48
口口口口 |①---|
口口口口 |----|
②③口口 |--②-|
①①口口 |--③-|
49
②口①① |①---|
②口口口 |----|
口口口③ |----|
口口口③ |②-③-|
50
口口②④ |①-②③|
⑥⑤②④ |-④⑤-|
①③口口 |--⑥-|
⑧口口⑦ |⑦-⑧-|
51
④②口口 |①-②③|
④②⑤⑥ |-④⑤-|
口口③① |--⑥-|
⑦口口⑧ |⑦-⑧-|
52
口①②口 |①---|
③口口④ |②---|
④⑤⑤③ |③--④|
口②①口 |--⑤-|
53
口口口口 |①---|
口①①口 |----|
③口口② |----|
口口口口 |②-③-|
54
口口口③ |①--②|
②口口① |--③-|
口口口口
口口口口

④⑤口口
口口⑥⑦
口口口口 |④-⑤-|
口口口口 |⑥-⑦-|
55
⑤⑤口⑥ |①-②-|
口口口⑥ |③-④-|
①②口口 |⑤---|
口口③④ |⑥---|
56
②③①口 |①---|
②③①口 |----|
口口口口 |----|
口口口口 |②-③-|
57
口口口口 |----|
口口口口 |①---|
口①①口 |②---|
③②②③ |③---|
58
③口口口 |①--②|
②口口① |--③-|
口口口口 |----|
口口口口 |----|
59
口口口③ |①--②|
①口口② |---③|
口口口口 |----|
口口口口 |----|
60
③③③③ |①--②|
口②②口 |--③-|
口①①口 |----|
口口口口 |----|
61
⑥口口③ |①--②|
口口口口 |--③-|
口⑤②口 |④--⑤|
①⑤②④ |--⑥-|
62
口口口② |①-②-|
①⑤④口 |③-④⑤|
③口⑥口 |-⑥⑦-|
⑧口⑦⑨ |⑧-⑨-|
63
口①③⑨ |①-②-|
⑧口口口 |③-④⑤|
⑦②④口 |-⑥-⑦|
口⑤口⑥ |⑧-⑨-|
64
口口⑤⑧ |①-②-|
⑥④②口 |③-④⑤|
⑦⑨口口 |-⑥⑦-|
口③①口 |⑧-⑨-|
65
口①口口 |①-②③|
口口口② |--④-|
④口口③
口口口口

⑥⑥口口
口口⑤口
口口口口 |⑤---|
口口口口 |⑥---|
66
口口③③ |①---|
④④口口 |②---|
②①①口 |③--④|
②⑤⑤口 |--⑤-|
67
口口口口 |①-②-|
口口口口 |--③-|
③②②③
①口口①

⑥⑥⑥⑥
口④④口
口口口口 |④---|
⑤口口⑤ |⑤-⑥-|

不確定度: 0

最終更新:2014年08月01日 01:32