Synchrogazer


ADVANCED

Level: 3
BPM: 159
Notes: 191

1
口口口口 |----|
口口口口 |----|
口口口口 |----|
口口口口 |----|
2
口②口口 |①---|
口口口口 |--②-|
口①口口 |----|
口口口口 |----|
3
口口口② |①---|
口口口口 |--②-|
口口口① |----|
口口口口 |----|
4
②口口口 |①---|
口口口口 |--②-|
①口口口 |----|
口口口口 |----|
5
口口②口 |①---|
口口口口 |--②-|
口口①口 |----|
口口口口 |----|
6
口③③口 |①---|
②口口② |----|
口①口口 |②---|
口口口口 |③---|
7
口口口口 |①---|
口口口口 |----|
口①②口 |②---|
口口口口 |----|
8
口口口口 |①---|
口①①口 |----|
口口口口 |----|
口口口口 |----|
9
口口口口 |----|
口口口口 |----|
口口口口 |----|
口口口口 |----|
10
口口口口 |①---|
口①①口 |----|
口口口口 |----|
口口口口 |----|
11
口口口口 |----|
口口口口 |----|
口口口口 |----|
口口口口 |----|
12
口口口口 |①---|
①口②口 |----|
口口口口 |②---|
口口口口 |----|
13
口口口口 |①---|
口口口口 |----|
口②口① |②---|
口口口口 |----|
14
口口口口 |①---|
口②③口 |----|
口口口口 |②---|
口①口口 |③---|
15
口口口口 |①---|
口②②口 |----|
口①①口 |②---|
口口口口 |----|
16
口口口口 |①---|
口口口口 |----|
口①①口 |----|
口口口口 |----|
17
口口口口 |----|
口口口口 |----|
口口口口 |----|
口口口口 |----|
18
口口口口 |①---|
①②口口 |----|
口口口口 |②---|
口口口口 |----|
19
口口口口 |①---|
口口②① |----|
口口口口 |②---|
口口口口 |----|
20
口口口口 |----|
口②②口 |①---|
口①①口 |--②-|
口口口口 |----|
21
口①①口 |①---|
口口口口 |----|
口口口口 |----|
口口口口 |----|
22
口口口口 |①---|
①②口口 |----|
口口口口 |②---|
口口口口 |----|
23
口口口口 |①---|
口口②① |----|
口口口口 |②---|
口口口口 |----|
24
口口口口 |----|
口②②口 |①---|
口①①口 |--②-|
口口口口 |----|
25
口①①口 |①---|
口口口口 |----|
口口口口 |----|
口口口口 |----|
26
口口口口 |①---|
口②口口 |----|
口①口口 |②---|
口口口口 |----|
27
口口口口 |①---|
口口①口 |----|
口口②口 |②---|
口口口口 |----|
28
口口口口 |①---|
口口口口 |----|
口②口口 |②---|
口①口口 |----|
29
口口②口 |①---|
口口①口 |----|
口口口口 |②---|
口口口口 |----|
30
口②②口 |①---|
口①①口 |----|
口口口口 |②---|
口口口口 |----|
31
口口口口 |①---|
口②②口 |----|
口①①口 |②---|
口口口口 |----|
32
口①①口 |①---|
口②②口 |----|
口口口口 |②---|
口口口口 |----|
33
口口口口 |①---|
②④口③ |②---|
口①①口 |③---|
口口口口 |④---|
34
口口口口 |①---|
口口①口 |----|
口口口口 |----|
口口口口 |----|
35
口口口口 |①---|
口①②口 |②---|
口③④口 |③---|
口口口口 |④---|
36
口口口口 |①---|
①口口① |----|
口口口口 |----|
口口口口 |----|
37
口口口口 |①---|
口口口口 |----|
口①①口 |----|
口口口口 |----|
38
口口口口 |①---|
口①①口 |----|
②口口② |----|
口口口口 |--②-|
39
口口口口 |----|
口口口口 |----|
口口口口 |----|
口口口口 |----|
40
口口口口 |①---|
口②②口 |--②-|
口①①口 |----|
口口口口 |----|
41
口口口口 |①---|
口口口口 |②---|
①②③口 |③---|
口口口口 |----|
42
口口口口 |①---|
口③②① |②---|
口口口口 |③---|
口口口口 |----|
43
口口口口 |①---|
①口口① |----|
口②②口 |②---|
口口口口 |----|
44
口①①口 |①---|
口口口口 |----|
口口口口 |----|
口口口口 |----|
45
口口口口 |①---|
口口②口 |--②-|
口①口口 |----|
口口口口 |----|
46
口口口口 |①---|
口②口口 |--②-|
口口①口 |----|
口口口口 |----|
47
口口口口 |①---|
口口口口 |②---|
①②③④ |③---|
口口口口 |④---|
48
口口口口 |①---|
口①①口 |----|
口口口口 |----|
口口口口 |----|
49
口①①口 |①---|
口口口口 |----|
口口口口 |----|
口口口口 |----|
50
口口口口 |①---|
口口口口 |②---|
①②③④ |③---|
口口口口 |④---|
51
口口口口 |①---|
④③②① |②---|
口口口口 |③---|
口口口口 |④---|
52
口①①口 |①---|
口口口口 |----|
口②②口 |②---|
口口口口 |----|
53
口口口口 |①---|
口①①口 |----|
口口口口 |----|
口口口口 |----|
54
口口口口 |①---|
口口口口 |----|
①口口① |②---|
②口口② |----|
55
口③③口 |①---|
④②②④ |②---|
口①①口 |③---|
口口口口 |④---|
56
①口口① |①---|
口口口口 |----|
口口口口 |----|
口口口口 |----|
57
口口口口 |①---|
口①②口 |②---|
口③④口 |③---|
口口口口 |④---|
58
口口口口 |①---|
②口口② |----|
①口口① |②---|
口口口口 |----|
59
口口口口 |①---|
口②②口 |----|
口①①口 |②---|
口口口口 |----|
60
口口口口 |①---|
②口口② |----|
①口口① |②---|
口口口口 |----|
61
口口口口 |①---|
口②②口 |----|
口①①口 |②---|
口口口口 |----|
62
口口口② |①---|
口口口口 |--②-|
口口口① |----|
口口口口 |----|
63
②口口口 |①---|
口口口口 |--②-|
①口口口 |----|
口口口口 |----|
64
口口②口 |①---|
口口口口 |--②-|
口口①口 |----|
口口口口 |----|
65
口③③口 |①---|
②口口② |----|
口①口口 |②---|
口口口口 |③---|
66
口口口口 |①---|
口②②口 |②---|
口①①口
口口口口

口口口口
口口口口
口③③口 |---③|
口口口口 |----|
67
口口口口 |①-②-|
②⑥⑥④ |--③-|
①⑤⑤③ |④---|
口口口口 |⑤-⑥-|

不確定度: 0

最終更新:2014年08月01日 01:32