Vanity
Vivian

ADVANCED

Level: 7
BPM: 125-150
Notes: 592

BPM: 125
1
口口口口 |----|
口口口口 |----|
口口口口 |----|
口口口口
2
口口口口 |----|
口口口口 |----|
口口口口 |----|
口口口口
3
口③③口 |①---|
口②②口 |②---|
口口口口 |③---|
①口口①
4
口口口口 |----|
口口口口 |----|
口口口口 |----|
口口口口
5
②口口② |①---|
口口口口 |②---|
③①①③ |③---|
口口口口
6
口口口口 |----|
口口口口 |----|
口口口口 |----|
口口口口
7
③口口③ |①---|
口口口口 |②---|
①②②① |③---|
口口口口
8
口口口口 |----|
口口口口 |----|
口口口口 |----|
口口口口
9
口②②口 |①---|
①口口① |②---|
③口口③ |③---|
口口口口
10
口口口口 |----|
口口口口 |----|
口口口口 |----|
口口口口
11
口口口口 |①---|
口口口③ |②---|
②口口口 |③---|
口口口①
12
口口口口 |①---|
口③口口 |②---|
口口②口 |③---|
口①口口
13
口口③口 |①---|
②口口口 |②---|
口口口① |③---|
口口口口
14
口③口口 |①---|
口口口② |②---|
①口口口 |③---|
口口口口

BPM: 150
15
口口口口 |----|
口①①口 |--①-|
口①①口 |----|
口口口口
16
口口口口 |①②③④|
①口口② |⑤⑥|
③口口④
⑤口口⑥
17
④口口口 |①--②|
口③口口 |--③-|
口②口口 |④-|
口①口口
18
口口口④ |①--②|
口口③口 |--③-|
口口②口 |④-|
口口①口
19
④口③口 |①--②|
口②口口 |--③-|
口①口口 |④-|
口口口口
20
口③口④ |①--②|
口口②口 |--③-|
口口①口 |④-|
口口口口
21
口口口口 |①---|
①口口① |--②-|
①②②① |----|
③②②③ |③---|
22
③②②③ |①---|
①②②① |--②-|
①口口① |----|
口口口口 |③---|
23
口口口口 |①---|
①口口① |--②-|
口①①口
口②②口

口口口口
③口口③
口口口口 |----|
口口口口 |③---|
24
口③③口 |--①-|
口②②口 |----|
口①①口 |②---|
口口口口 |③---|
25
口口口口 |①---|
①③③① |--②-|
①口口① |----|
口②②口 |③---|
26
口口口口 |----|
口口口口 |----|
口口口口 |----|
口口口口 |----|
27
口口口口 |①---|
口①①口 |--②-|
①②②①
口口口口

口口口口
口③③口
口口口口 |----|
口口口口 |③---|
28
口口口口 |----|
口口口口 |----|
口口口口 |----|
口口口口 |----|
29
口口口口 |①---|
③①①③ |--②-|
②①①② |----|
口口口口 |③---|
30
口口口口 |----|
口口口口 |----|
口口口口 |----|
口口口口 |----|
31
口口口口 |①-②-|
口⑤②⑧ |③-④-|
⑦③⑥口 |⑤-⑥-|
①①④④ |⑦-⑧-|
32
口口口口 |①-②-|
口⑤②⑧ |③-④-|
⑦③⑥口 |⑤-⑥-|
①①④④ |⑦-⑧-|
33
①①④④ |①-②-|
⑦⑤②口 |③-④-|
口③⑥⑧ |⑤-⑥-|
口口口口 |⑦-⑧-|
34
①①④④ |①-②-|
⑦⑤②口 |③-④-|
口③⑥⑧ |⑤-⑥-|
口口口口 |⑦-⑧-|
35
口⑤②口 |①-②-|
口口⑧口 |③-④-|
⑦③⑥口 |⑤-⑥-|
①①④④ |⑦-⑧-|
36
口⑤②口 |①-②-|
口口⑧口 |③-④-|
⑦③⑥口 |⑤-⑥-|
①①④④ |⑦-⑧-|
37
①口口④ |①-②-|
①口⑧④ |③-④-|
⑤⑦口② |⑤-⑥-|
口③⑥口 |⑦-⑧-|
38
口⑤②口 |①-②-|
口③⑥口 |③-④-|
口⑦⑧口 |⑤-⑥-|
①①④④ |⑦-⑧-|
39
口②②口 |①---|
④⑤⑤④ |②---|
①口口① |③-④-|
口③③口 |--⑤-|
40
口口口口 |--①②|
⑥口口口 |③-④-|
口②①⑦ |⑤-⑥-|
④口③⑤ |--⑦-|
41
口口口口 |①---|
口③③口 |--②-|
口②②口 |----|
口①①口 |③---|
42
口①①口 |--①-|
⑤口口⑤ |--②-|
④②②④ |③--④|
③口口③ |--⑤-|
43
⑤②②⑤ |①---|
④①①④ |②---|
口口口口 |③-④-|
口③③口 |--⑤-|
44
口口口口 |--①-|
口口口口 |----|
口①①口 |----|
口口口口 |----|
45
⑥口口③ |①-②-|
⑥口口③ |③-④-|
⑧②⑤口 |⑤-⑥-|
口④①⑦ |⑦-⑧-|
46
口④①口 |①-②-|
口④①口 |③-④-|
口⑤⑤③ |⑤---|
②口口口 |----|
47
口口①口 |①-②-|
口口口① |③---|
②口口口 |----|
口②③③ |----|
48
口①口口 |①-②-|
①口口口 |③---|
口口口② |----|
③③②口 |----|
49
口①口① |①-②-|
②口②口 |③---|
③③③③ |----|
口口口口 |----|
50
口口口口 |----|
口口口口 |----|
口口口口 |----|
口口口口 |----|
51
口口口口 |①②-③|
①③④② |④---|
①③④②
口口口口

口⑤⑤口
⑥⑧口⑦
⑥⑧口⑦ |--⑤-|
口口口口 |⑥⑦-⑧|
52
口口口口 |①--②|
口口①口 |--③-|
口⑥①口 |-④--|
②④⑤③ |⑤-⑥-|
53
口口①① |①②-③|
②②口口 |④---|
口口③③
④④口口

口口⑥⑥
⑦⑦⑤口
口⑤⑧⑧ |--⑤-|
口口口口 |⑥⑦-⑧|
54
口②口口 |①--②|
口⑥③口 |--③-|
口④口口 |-④--|
①①⑤口 |⑤-⑥-|
55
口口①① |①---|
口口口口 |--②-|
②②口口 |--③-|
口口③③
56
①①口口 |①---|
口口②② |--②-|
口口口口 |--③-|
③③口口
57
口口①① |①---|
口口口口 |--②-|
②②口口 |--③-|
口口③③
58
①①口口 |①---|
③②②③ |--②-|
口口口口 |--③-|
口口口口
59
口口④⑤ |①-②-|
口口④⑤ |③-④-|
①①口口 |--⑤-|
口③口②
60
⑤④口口 |①-②-|
⑤④口口 |③-④-|
口口①① |--⑤-|
②口③口
61
口口④⑤ |①-②-|
口口④⑤ |③-④-|
①①口口 |--⑤-|
口③口②
62
口口口口 |①-②-|
口口口口 |③-④-|
口口①① |-⑤--|
②④③⑤
63
①③②① |①-②③|
口口④口 |④-⑤-|
口⑤口口 |--⑥-|
口⑥⑥口
64
①③②① |①-②③|
口口④口 |④-⑤-|
口⑤口口 |--⑥-|
口⑥⑥口
65
①③②① |①-②③|
口口④口 |④-⑤-|
口⑤口口 |--⑥-|
口⑥⑥口
66
①③②① |①-②③|
口口④口 |④-⑤-|
口⑤口口 |--⑥-|
口⑥⑥口
67
①口②① |①-②③|
⑥③口口 |④-⑤-|
口口④口 |--⑥-|
⑤口口口
68
①口②① |①-②③|
⑥③口口 |④-⑤-|
口口④口 |--⑥-|
⑤口口口
69
①②口① |①-②③|
口口③⑥ |④-⑤-|
口④口口 |--⑥-|
口口口⑤
70
①②口① |①-②③|
口口③⑥ |④-⑤-|
口④口口 |-⑥--|
口口口⑤
71
⑥⑥口口 |①-②③|
⑤⑤口口 |④-⑤-|
①③②① |-⑥--|
口口④口
72
口口⑥⑥ |①-②③|
口口⑤⑤ |④-⑤-|
①②③① |-⑥--|
口④口口
73
⑥⑥口口 |①-②③|
⑤⑤口口 |④-⑤-|
①③②① |-⑥--|
口口④口
74
口口⑥⑥ |①-②③|
口口⑤⑤ |④-⑤-|
①②③① |-⑥--|
口④口口
75
⑥⑤口口 |①-②③|
⑥⑤口口 |④-⑤-|
①③②① |-⑥--|
口口④口
76
口口⑤⑥ |①-②③|
口口⑤⑥ |④-⑤-|
①②③① |-⑥--|
口④口口
77
⑥⑤口口 |①-②③|
⑥⑤口口 |④-⑤-|
①③②① |-⑥--|
口口④口
78
口口口口 |①-②③|
⑥口口⑤ |④-⑤-|
①②③① |-⑥--|
口④口口
79
①①②口 |①-②③|
口③⑧口 |④-⑤-|
口⑦④口 |⑥⑦⑧-|
⑤⑤⑥口
80
①①②口 |①-②③|
口③⑧口 |④-⑤-|
口⑦④口 |⑥⑦⑧-|
⑤⑤⑥口
81
①口②口 |①-②③|
①③⑧口 |④-⑤-|
⑤⑦④口 |⑥⑦⑧-|
⑤口⑥口
82
①口②口 |①-②③|
①③⑧口 |④-⑤-|
⑤⑦④口 |⑥⑦⑧-|
⑤口⑥口
83
①②③① |①-②③|
口④口口 |④-⑤-|
⑤⑦⑥⑤ |⑥⑦⑧-|
口口⑧口
84
①②③① |①-②③|
口④口口 |④-⑤-|
⑤⑦⑥⑤ |⑥⑦⑧-|
口口⑧口
85
①②③① |①-②③|
口④口口 |④-⑤-|
⑤⑦⑥⑤ |⑥⑦⑧-|
口口⑧口
86
①②③① |①-②③|
口④口口 |④-⑤-|
⑥⑦⑦⑤ |⑥-⑦-|
口口口口


不確定度: 0

最終更新:2013年03月29日 20:39