cloche
Qrispy Joybox

ADVANCED

Level: 6
BPM: 182
Notes: 389

1
口口口口 |----|
口口口口 |----|
口口口口 |----|
口口口口 |----|
2
口⑤口④ |①---|
口口口口 |②-③-|
①口②③ |--④-|
口口口口 |--⑤-|
3
口⑤④③ |--①-|
口口口口 |--②-|
口①口② |--③-|
口口口口 |④-⑤-|
4
①口口⑤ |①---|
口口口口 |②-③-|
②③口④ |--④-|
口口口口 |--⑤-|
5
口口口口 |----|
口口口口 |----|
口口口口 |----|
口口口口 |----|
6
口⑤口④ |①---|
口口口口 |②-③-|
①口②③ |--④-|
口口口口 |--⑤-|
7
口⑤④③ |--①-|
口口口口 |--②-|
口①口② |--③-|
口口口口 |④-⑤-|
8
①口口⑤ |①---|
口口口口 |②-③-|
②③口④ |--④-|
口口口口 |--⑤-|
9
口口口口 |----|
口口口口 |----|
口口口口 |----|
口口口口 |----|
10
口口口⑤ |--①-|
①②③④ |②-③-|
口口口口 |④-⑤-|
⑥口口口 |--⑥-|
11
口口口口 |--①-|
④口口口 |--②-|
②口口③ |--③-|
口口口① |--④-|
12
①②③④ |--①-|
口⑦⑥⑤ |②-③-|
口口口口 |④-⑤-|
口口口口 |⑥-⑦-|
13
口口口口 |----|
口口口口 |----|
口口口口 |----|
口口口口 |----|
14
口⑦⑥⑤ |--①-|
①②③④ |②-③-|
口口口口 |④-⑤-|
口口口口 |⑥-⑦-|
15
口口口口 |--①-|
④口口③ |--②-|
①口口口 |--③-|
口口②口 |--④-|
16
①②③④ |--①-|
口⑦⑥⑤ |②-③-|
口口口口 |④-⑤-|
口口口口 |⑥-⑦-|
17
口口口口 |----|
口口口口 |----|
口口口口 |----|
口口口口 |----|
18
口口口口 |--①-|
①②③口 |②-③-|
口⑥⑤④ |--④-|
口口口口 |⑤-⑥-|
19
口⑥⑤④ |--①-|
①②③口 |②-③-|
口口口口 |--④-|
口口口口 |⑤-⑥-|
20
口口口口 |--①-|
①②③口 |②-③-|
口⑥⑤④ |--④-|
口口口口 |⑤-⑥-|
21
口口口口 |----|
口口口口 |----|
口口口口 |----|
口口口口 |----|
22
口口口口 |--①-|
①②③口 |②-③-|
口⑥⑤④ |--④-|
口口口口 |⑤-⑥-|
23
口④⑤⑥ |--①-|
①②③口 |②-③-|
口口口口 |--④-|
口口口口 |⑤-⑥-|
24
口口口口 |--①-|
口⑦⑥⑤ |②-③-|
①②③④ |④-⑤-|
口口口口 |⑥-⑦-|
25
口口口口 |----|
口口口口 |----|
口口口口 |----|
口口口口 |----|
26
口③④口 |①---|
口口口口 |②---|
①口口② |③-④-|
口⑤⑤口 |--⑤-|
27
口口口口 |--①-|
口②②口 |--②-|
口①①口 |----|
口口口口 |----|
28
口③④口 |①---|
口口口口 |②---|
①⑤⑤② |③-④-|
口口口口 |--⑤-|
29
口口口口 |----|
口口口口 |----|
口口口口 |----|
口口口口 |----|
30
口③④口 |①---|
口口口口 |②---|
①口口② |③-④-|
口⑤⑤口 |--⑤-|
31
口口口口 |--①-|
口②②口 |--②-|
口①①口 |----|
口口口口 |----|
32
口③④口 |①---|
口口口口 |②---|
①⑤⑤② |③-④-|
口口口口 |--⑤-|
33
口口口口 |----|
口口口口 |----|
口口口口 |----|
口口口口 |----|
34
①口口② |--①-|
⑥③④口 |②-③-|
口⑤口口 |④-⑤-|
口口口口 |--⑥-|
35
口②③口 |①-②-|
口④口① |③-④-|
口口⑤口 |--⑤-|
口⑥⑦口 |⑥-⑦-|
36
①口口② |--①-|
⑦③④⑦ |②-③-|
口⑤⑥口 |④-⑤-|
口口口口 |⑥-⑦-|
37
口口口口 |----|
口口口口 |----|
口口口口 |----|
口口口口 |----|
38
①口口② |--①-|
⑥③④口 |②-③-|
口⑤口口 |④-⑤-|
口口口口 |--⑥-|
39
口②③口 |①-②-|
口④口① |③-④-|
口口⑤口 |--⑤-|
口⑥⑦口 |⑥-⑦-|
40
①口口② |--①-|
⑦③④⑦ |②-③-|
口⑤⑥口 |④-⑤-|
口口口口 |⑥-⑦-|
41
口口口口 |----|
口口口口 |----|
口口口口 |----|
口口口口 |----|
42
口③③口 |①---|
④口口口 |----|
①①①① |②-③-|
口②②口 |--④-|
43
口口口口 |--①-|
口口口① |----|
口口口口 |----|
口口口口 |----|
44
口②②口 |①---|
口口口口 |----|
①①①① |②-③-|
④③③④ |--④-|
45
①口口① |--①-|
③②②③ |②-③-|
口口口口 |----|
口口口口 |----|
46
口口口口 |①---|
口口口口 |----|
①①①①
口口口口

口③③口
口口口口
④口口④ |②-③-|
口②②口 |--④-|
47
口口口口 |----|
口口口口 |----|
口口口口 |----|
口口口口 |----|
48
口③③口 |①---|
④口口④ |----|
①①①① |②-③-|
口②②口 |--④-|
49
口口口口 |----|
口口口口 |----|
口口口口 |----|
口口口口 |----|
50
口口口口 |----|
口口口口 |----|
口口口口 |----|
口口口口 |----|
51
口口口口 |--①-|
①②③口 |②-③-|
口⑥⑤④ |--④-|
口口口口 |⑤-⑥-|
52
口⑥⑤④ |--①-|
①②③口 |②-③-|
口口口口 |--④-|
口口口口 |⑤-⑥-|
53
口口口口 |--①-|
①②③口 |②-③-|
口⑥⑤④ |--④-|
口口口口 |⑤-⑥-|
54
口口口口 |----|
口口口口 |----|
口口口口 |----|
口口口口 |----|
55
口口口口 |--①-|
①②③口 |②-③-|
口⑥⑤④ |--④-|
口口口口 |⑤-⑥-|
56
口④⑤⑥ |--①-|
①②③口 |②-③-|
口口口口 |--④-|
口口口口 |⑤-⑥-|
57
口口口口 |--①-|
口⑦⑥⑤ |②-③-|
①②③④ |④-⑤-|
口口口口 |⑥-⑦-|
58
口口口口 |----|
口口口口 |----|
口口口口 |----|
口口口口 |----|
59
①口④⑦ |--①-|
②③⑤⑥ |②-③-|
口口口口 |④-⑤-|
口口口口 |⑥-⑦-|
60
口⑥口口 |①-②-|
口口口口 |③-④-|
①④口口 |--⑤-|
②③⑤口 |--⑥-|
61
①口口口 |--①-|
②③口口 |②-③-|
口口④⑦ |④-⑤-|
口口⑤⑥ |⑥-⑦-|
62
口口口口 |----|
口口口口 |----|
口口口口 |----|
口口口口 |----|
63
①口④⑦ |--①-|
②③⑤⑥ |②-③-|
口口口口 |④-⑤-|
口口口口 |⑥-⑦-|
64
口⑥口口 |①-②-|
口口口口 |③-④-|
①④口口 |--⑤-|
②③⑤口 |--⑥-|
65
①口口口 |--①-|
②③口口 |②-③-|
口口④⑤ |④-⑤-|
口口⑦⑥ |⑥-⑦-|
66
口口口口 |----|
口口口口 |----|
口口口口 |----|
口口口口 |----|
67
口①①口 |①---|
④口口⑤ |②-③-|
口②③口 |--④-|
口口口口 |--⑤-|
68
②口口口 |--①-|
口③④口 |--②-|
口口⑤口 |③-④-|
口①①⑥ |⑤-⑥-|
69
口④口① |①---|
③口口口 |--②-|
口口口④ |--③-|
②口③口 |--④-|
70
口口口口 |----|
口口口口 |----|
口口口口 |----|
口口口口 |----|
71
口①①口 |①---|
④口口⑤ |②-③-|
口②③口 |--④-|
口口口口 |--⑤-|
72
②口口口 |--①-|
口③④口 |--②-|
口口⑤口 |③-④-|
口①①⑥ |⑤-⑥-|
73
口④口① |①---|
③口口口 |--②-|
口口口④ |--③-|
②口③口 |--④-|
74
口口口口 |----|
口口口口 |----|
口口口口 |----|
口口口口 |----|
75
①口④⑦ |--①-|
②③⑤⑥ |②-③-|
口口口口 |④-⑤-|
口口口口 |⑥-⑦-|
76
口⑤口口 |①-②-|
口④口⑤ |--③-|
③口口④ |--④-|
①口③② |--⑤-|
77
口口口口 |--①-|
①口④⑦ |②-③-|
②③⑤⑥ |④-⑤-|
口口口口 |⑥-⑦-|
78
①②③④ |①-②-|
口口口口 |③-④-|
口口口口 |----|
口口口口 |----|
79
①口④⑦ |--①-|
②③⑤⑥ |②-③-|
口口口口 |④-⑤-|
口口口口 |⑥-⑦-|
80
口⑤口口 |①-②-|
口④口⑤ |--③-|
③口口④ |--④-|
①口③② |--⑤-|
81
口口④⑦ |--①-|
①口④⑦ |②-③-|
②③⑤⑥ |④-⑤-|
口口⑤⑥ |⑥-⑦-|


不确定度: 0

最終更新:2012年11月07日 23:20