SILVER☆DREAM
jun

BASIC

Level: 6
BPM: 192
Notes: 385

1
口口口口 |----|
口口口口 |----|
口口口口 |----|
口口口口 |----|
2
口口口口 |----|
口口口口 |----|
口口口口 |----|
口口口口 |----|
3
口⑤⑤口 |①---|
④口口③ |②---|
口②②口 |③-④-|
口①①口 |--⑤-|
4
口口口口 |--①-|
口①①口 |--②-|
④②②③ |--③-|
口口⑤口 |④-⑤-|
5
口口口口 |----|
口③②口 |①---|
④①①④ |②-③-|
口口口口 |--④-|
6
②口⑤② |--①-|
①④③① |--②-|
口口口口 |--③-|
口口口口 |④-⑤-|
7
口④④口 |----|
③口口② |①---|
口①①口 |②-③-|
口口口口 |--④-|
8
口口⑤口 |--①-|
④①①③ |--②-|
口②②口 |--③-|
口口口口 |④-⑤-|
9
口口口口 |----|
口①①口 |①---|
④③②④ |②-③-|
口口口口 |--④-|
10
口②口口 |--①-|
①④③① |--②-|
口⑥⑤口 |③-④-|
口口口口 |⑤-⑥-|
11
口口口口 |①---|
②口口② |----|
口口口口 |②---|
①口口① |----|
12
①口口① |①---|
口②②口 |----|
口③③口 |②---|
口口口口 |③---|
13
口口口口 |①---|
②口口② |----|
口口口口 |②---|
口①①口 |----|
14
①口口① |①---|
口③③口 |----|
口②②口 |②---|
口口口口 |③---|
15
口①①口 |①---|
②口口② |----|
口口口口 |②---|
口口口口 |----|
16
①口口① |①---|
口口口口 |----|
口②②口 |②---|
口口口口 |----|
17
口口口口 |①---|
②①①② |----|
口口口口 |②---|
口口口口 |----|
18
口口口口 |①---|
口①①口 |----|
口③②口 |②---|
口口口口 |③---|
19
口口口口 |①---|
④口口② |②---|
③口口① |③---|
口口口口 |④---|
20
口口口口 |①---|
口④②口 |②---|
口③①口 |③---|
口口口口 |④---|
21
口口口口 |①---|
④口口② |②---|
③口口① |③---|
口口口口 |④---|
22
口口口口 |①---|
口④②口 |②---|
口③①口 |③---|
口口口口 |④---|
23
口口口口 |①---|
③④②① |②---|
口口口口 |③---|
口口口口 |④---|
24
口口口口 |①---|
口口口口 |②---|
③④②① |③---|
口口口口 |④---|
25
口口口口 |①---|
②①①② |----|
口口口口 |②---|
口口口口 |----|
26
口①①口 |①---|
口口口口 |----|
口②②口 |②---|
口口口口 |----|
27
③口口③ |①---|
②①①② |②-③-|
口口口口 |----|
口口口口 |----|
28
②口①口 |①---|
④口③口 |②---|
口口口口 |③---|
口口口口 |④---|
29
口口口口 |①---|
口口口口 |②---|
②口①口 |③---|
口口③③ |----|
30
口①口② |①---|
口③口④ |②---|
口口口口 |③---|
口口口口 |④---|
31
口口口口 |①---|
口口口口 |②---|
口①口② |③---|
③③口口 |----|
32
口口口② |①---|
口口口① |②---|
④口口口 |③---|
③口口口 |④---|
33
④口口口 |①---|
③口口口 |②---|
口口口② |③---|
口口口① |④---|
34
口口口口 |①---|
口①①口 |----|
口②②口 |②---|
口口口口 |----|
35
①口口① |①---|
①口口① |----|
口口口口 |----|
口口口口 |----|
36
口口口口 |①---|
②口①口 |②---|
口口③③ |③---|
口口口口 |----|
37
口口口口 |①---|
口①口② |②---|
③③口口 |③---|
口口口口 |----|
38
口②①口 |①---|
口④③口 |②---|
口口口口 |③---|
口口口口 |④---|
39
口口口口 |①---|
③口口③ |②---|
口②①口 |③---|
口口口口 |----|
40
口口口口 |①---|
口③③口 |②---|
口口②② |③---|
口口①① |----|
41
口口口口 |①---|
口③③口 |②---|
②②口口 |③---|
①①口口 |----|
42
①③③① |①---|
②④④② |②---|
口口口口 |③---|
口口口口 |④---|
43
④口口④ |①---|
④口口④ |②---|
②③③② |③---|
①口口① |④---|
44
口口口口 |①---|
口①①口 |----|
口口口口 |----|
口口口口 |----|
45
口口口口 |①---|
口①①口 |----|
口①①口 |----|
口口口口 |----|
46
口口口口 |①---|
①口口① |----|
①口口① |----|
口口口口 |----|
47
口口口口 |①---|
口①①口 |----|
口①①口 |----|
口口口口 |----|
48
口口口口 |①---|
③①③① |②---|
④②④② |③---|
口口口口 |④---|
49
③①③① |①---|
④②④② |②---|
口口口口 |③---|
口口口口 |④---|
50
口口口口 |①---|
口口口口 |②---|
②①②① |③---|
④③④③ |④---|
51
③口口③ |①---|
③①①③ |②---|
口②②口 |③---|
口口口口 |----|
52
口①①口 |①---|
口①①口 |----|
口口口口 |----|
口口口口 |----|
53
口口口口 |----|
口口口口 |----|
口口口口 |----|
口口口口 |----|
54
口①口② |①---|
口③口④ |②---|
口口口口 |③---|
口口口口 |④---|
55
口口口口 |①---|
口口口口 |②---|
口①口② |③---|
③③口口 |----|
56
口口口② |①---|
口口口① |②---|
④口口口 |③---|
③口口口 |④---|
57
④口口口 |①---|
③口口口 |②---|
口口口② |③---|
口口口① |④---|
58
口口口口 |①---|
口①①口 |----|
口②②口 |②---|
口口口口 |----|
59
①口口① |①---|
①口口① |----|
口口口口 |----|
口口口口 |----|
60
口口口口 |①---|
②口①口 |②---|
口口③③ |③---|
口口口口 |----|
61
口口口口 |①---|
口①口② |②---|
③③口口 |③---|
口口口口 |----|
62
口②①口 |①---|
口④③口 |②---|
口口口口 |③---|
口口口口 |④---|
63
口口口口 |①---|
③口口③ |②---|
口②①口 |③---|
口口口口 |----|
64
口④④口 |①---|
口③③口 |②---|
口口②② |③---|
口口①① |④---|
65
口口口口 |①---|
①③③① |②---|
②口口② |③---|
口口口口 |----|
66
①③③① |①---|
②④④② |②---|
口口口口 |③---|
口口口口 |④---|
67
④口口④ |①---|
④口口④ |②---|
②③③② |③---|
①口口① |④---|
68
口④④口 |----|
口口口口 |①---|
③口口② |②-③-|
口①①口 |--④-|
69
口口口口 |--①-|
口①①口 |--②-|
④②②③ |--③-|
口口⑤口 |④-⑤-|
70
口口口口 |----|
口③②口 |①---|
④①①④ |②-③-|
口口口口 |--④-|
71
②口⑤② |--①-|
①④③① |--②-|
口口口口 |--③-|
口口口口 |④-⑤-|
72
口④④口 |----|
③口口② |①---|
口①①口 |②-③-|
口口口口 |--④-|
73
口口口口 |--①-|
④①①③ |--②-|
口②②⑤ |--③-|
口口口口 |④-⑤-|
74
④口口④ |①---|
口②②口 |②---|
口③③口 |③---|
口①①口 |④---|
75
⑥②①⑥ |①-②-|
⑥④③⑥ |③-④-|
⑤口口⑤ |⑤---|
口口口口 |⑥---|

不確定度: 0

最終更新:2014年08月01日 23:05