SILVER☆DREAM
jun

ADVANCED

Level: 7
BPM: 192
Notes: 494

1
口口口口 |----|
口口口口 |----|
口口口口 |----|
口口口口 |----|
2
口口口口 |----|
口口口口 |----|
口口口口 |----|
口口口口 |----|
3
③口口口 |①---|
④口⑤② |②---|
口⑤口口 |③-④-|
口口①① |--⑤-|
4
口④③口 |--①-|
口①⑤口 |--②-|
②口①② |--③-|
口口口口 |④-⑤-|
5
口口口③ |①---|
②⑤口④ |②---|
口口⑤口 |③-④-|
①①口口 |--⑤-|
6
口⑤④口 |--①-|
③口①口 |--②-|
②①口② |--③-|
口口口口 |④-⑤-|
7
③口口口 |①---|
④口⑤② |②---|
口⑤口口 |③-④-|
口口①① |--⑤-|
8
口④⑤口 |--①-|
口①口③ |--②-|
②口①② |--③-|
口口口口 |④-⑤-|
9
口口口③ |①---|
②⑤口④ |②---|
口口⑤口 |③-④-|
①①口口 |--⑤-|
10
口③口口 |--①-|
口口①④ |--②-|
⑤①口口 |③-④-|
口口⑥② |⑤-⑥-|
11
口⑥口口 |--①-|
口④③口 |②-③-|
口②①口 |④---|
口口⑤口 |⑤-⑥-|
12
口口口① |--①-|
②口口口 |②-③-|
口口口③ |④---|
④⑤⑤口 |⑤---|
13
口口⑥口 |--①-|
口③④口 |②-③-|
口①②口 |④---|
口⑤口口 |⑤-⑥-|
14
口口口口 |--①-|
口③③口 |--②-|
①②②① |③---|
口④④口 |④---|
15
④口口口 |--①-|
口⑥口③ |②-③-|
②口⑤口 |④---|
口口口① |⑤-⑥-|
16
口②①口 |--①-|
④口③⑤ |--②-|
口口口口 |③---|
口口口口 |④-⑤-|
17
口口口口 |①---|
口④④口 |②-③-|
①口②口 |----|
口③口口 |④---|
18
口口口口 |①---|
口口口口 |②-③-|
①口②① |----|
口③口口 |----|
19
口⑥口口 |--①-|
口④③口 |②-③-|
口②①口 |④---|
口口⑤口 |⑤-⑥-|
20
口口口① |--①-|
②口口口 |②-③-|
口口口③ |④---|
④⑤⑤口 |⑤---|
21
口口⑥口 |--①-|
口③④口 |②-③-|
口①②口 |④---|
口⑤口口 |⑤-⑥-|
22
口口口口 |--①-|
口③③口 |--②-|
①②②① |③---|
口④④口 |④---|
23
④口口口 |--①-|
口⑥口③ |②-③-|
②口⑤口 |④---|
口口口① |⑤-⑥-|
24
口②①口 |--①-|
④口③⑤ |--②-|
口口口口 |③---|
口口口口 |④-⑤-|
25
口口口口 |①---|
口口口口 |②-③-|
①⑤②口 |----|
口③④口 |④-⑤-|
26
口口②口 |①---|
口③①口 |--②-|
口口口口 |③---|
口口口口 |----|
27
③①①② |----|
③口口② |--①-|
口口口④ |--②-|
口口口④ |③-④-|
28
口③③口 |①---|
口④④口 |②-③-|
①②②口 |--④-|
①⑤⑤口 |--⑤-|
29
口口口口 |----|
①②③口 |----|
口口口口 |--①-|
口口口口 |②-③-|
30
口⑤③口 |①---|
口口口口 |②-③-|
口②④① |--④-|
口口口口 |--⑤-|
31
口口口① |--①-|
②口口口 |②-③-|
口口⑥③ |④---|
④口⑤口 |⑤-⑥-|
32
口①口④ |①---|
口⑤②口 |②-③-|
口③口口 |--④-|
口口口口 |--⑤-|
33
④口口口 |①---|
口口③⑤ |②-③-|
⑥②①口 |--④-|
口口口口 |⑤-⑥-|
34
口口③口 |①---|
口④④口 |②-③-|
口口口口 |----|
口②口① |④---|
35
口②②口 |①---|
口口口口 |--②-|
①口口①
口口口口

④口口③
④口口③
口口口⑤ |--③-|
口口口⑤ |④-⑤-|
36
口②②⑤ |①---|
口口口⑤ |②---|
①④口口 |③---|
①③③口 |④-⑤-|
37
②口口口 |--①-|
②①①口 |--②-|
口口③口 |③---|
口口口口 |----|
38
③①②口 |①---|
口②①④ |②---|
⑤口口口 |③-④-|
口口口⑥ |⑤-⑥-|
39
口口③③ |--①-|
⑤口⑥④ |②-③-|
口②口口 |--④-|
口①口口 |⑤-⑥-|
40
口②②口 |①---|
口①口口 |②---|
⑤口③⑤ |③-④-|
口④口口 |--⑤-|
41
口②①口 |--①-|
口口③口 |②-③-|
口口口④ |----|
口口口口 |--④-|
42
口口口口 |①---|
口口口口 |②---|
②①口口
②①口口

口口口③
口④口⑤
口⑥口口 |③-④-|
口口口口 |⑤-⑥-|
43
⑥⑥⑥⑥ |①-②-|
①口口口 |③-④-|
③口②口 |⑤---|
口⑤④口 |⑥---|
44
口口口口 |①---|
口③口② |②---|
口口④口 |③-④-|
⑤口口① |--⑤-|
45
口口口口 |--①-|
口④③口 |--②-|
口口⑤口 |--③-|
口①②口 |④-⑤-|
46
口口口口 |①---|
②口③口 |②---|
口④口口 |③-④-|
①口口⑤ |--⑤-|
47
口口口口 |--①-|
口⑤口口 |--②-|
口③④口 |--③-|
口②①口 |④-⑤-|
48
②⑥口② |①---|
口口③口 |②---|
口④口口 |③-④-|
①口⑤① |⑤-⑥-|
49
口口⑤口 |①-②-|
④②⑦口 |③-④-|
⑥口口① |⑤-⑥-|
⑧口口③ |⑦-⑧-|
50
②口口② |①---|
③⑤⑤③ |②---|
④口口④ |③-④-|
口①①口 |--⑤-|
51
④②②③ |--①-|
④口口③ |--②-|
口①①⑤ |--③-|
口口口⑤ |④-⑤-|
52
口③③口 |①---|
口④④口 |②-③-|
①②②口 |--④-|
①⑤⑤口 |--⑤-|
53
口口口口 |----|
①②③口 |----|
口口口口 |--①-|
口口口口 |②-③-|
54
口⑤③口 |①---|
口口口口 |②-③-|
口②④① |--④-|
口口口口 |--⑤-|
55
口口口① |--①-|
②口口口 |②-③-|
口口⑥③ |④---|
④口⑤口 |⑤-⑥-|
56
口①口④ |①---|
口⑤②口 |②-③-|
口③口口 |--④-|
口口口口 |--⑤-|
57
④口口口 |①---|
口口③⑤ |②-③-|
⑥②①口 |--④-|
口口口口 |⑤-⑥-|
58
口口③口 |①---|
口④④口 |②-③-|
口口口口 |----|
口②口① |④---|
59
口②②口 |①---|
口口口口 |--②-|
①口口①
口口口口

④口口③
④口口③
口口口⑤ |--③-|
口口口⑤ |④-⑤-|
60
口②②⑤ |①---|
口口口⑤ |②---|
①④口口 |③---|
①③③口 |④-⑤-|
61
②口口口 |--①-|
②①①口 |--②-|
口口③口 |③---|
口口口口 |----|
62
③①②口 |①---|
口②①④ |②---|
⑤口口口 |③-④-|
口口口⑥ |⑤-⑥-|
63
口口③③ |--①-|
⑤口⑥④ |②-③-|
口②口口 |--④-|
口①口口 |⑤-⑥-|
64
⑥②②口 |①---|
口①口⑤ |②---|
口④口口 |③-④-|
口口③口 |⑤-⑥-|
65
口④口口 |--①-|
口②①口 |②-③-|
口口③⑤ |④---|
口口口口 |--⑤-|
66
口口口口 |①---|
口口口口 |②---|
②①口口
②①口口

口口口③
口④口⑤
口⑥口口 |③-④-|
口口口口 |⑤-⑥-|
67
⑥⑥⑥⑥ |①-②-|
①口口口 |③-④-|
③口②口 |⑤---|
口⑤④口 |⑥---|
68
⑤口口口 |①---|
②口③② |②---|
口①①口 |③-④-|
口④口⑤ |--⑤-|
69
口口口口 |--①-|
①④③② |--②-|
②口⑤① |--③-|
口口口口 |④-⑤-|
70
口②②⑤ |①---|
口口③口 |②---|
口④口口 |③-④-|
⑤①①口 |--⑤-|
71
口⑤口口 |--①-|
②口口① |--②-|
①口④② |--③-|
口③口口 |④-⑤-|
72
口口⑤口 |①-②-|
口⑥③① |③-④-|
②④⑦口 |⑤-⑥-|
口⑧口口 |⑦-⑧-|
73
⑥⑧口① |①-②-|
口口口③ |③-④-|
④口口口 |⑤-⑥-|
②口⑦⑤ |⑦-⑧-|
74
④④②② |①---|
口③①口 |②---|
口③①口 |③---|
口口口口 |④---|
75
⑥⑥⑥⑥ |①-②-|
②④④② |③-④-|
⑤口口⑤ |⑤---|
③①①③ |⑥---|

不確定度: 0

最終更新:2014年08月01日 23:04