Across the nightmare
Jimmy Weckl

BASIC

Level: 6
BPM: 150
Notes: 342

1
口口口口 |----|
口口口口 |----|
口口口口 |----|
口口口口 |----|
2
口口口口 |----|
口口口口 |----|
口口口口 |----|
口口口口 |----|
3
③③①① |①--②|
④④②② |----|
口口口口 |③--④|
口口口口 |----|
4
口口口口 |①--②|
③口口③ |----|
口①①口 |③--④|
④②②④ |----|
5
③③①① |①--②|
④④②② |----|
口口口口 |③--④|
口口口口 |----|
6
口口口口 |①--②|
③口口③ |----|
口①①口 |③--④|
④②②④ |----|
7
①①③③ |①--②|
②②④④ |----|
口口口口 |③--④|
口口口口 |----|
8
口口口口 |①--②|
口③③口 |----|
①口口① |③--④|
②④④② |----|
9
①①③③ |①--②|
②②④④ |----|
口口口口 |③--④|
口口口口 |----|
10
口口口口 |①--②|
口③③口 |----|
①④④① |③--④|
②⑤⑤② |--⑤-|
11
口口口口 |----|
口口口口 |----|
口口口口 |----|
口口口口 |----|
12
口①②口 |①-②-|
口③④口 |③-④-|
口⑤⑥口 |⑤-⑥-|
口⑦⑧口 |⑦-⑧-|
13
口口⑧④ |①-②-|
③⑦口口 |③-④-|
口口⑥② |⑤-⑥-|
①⑤口口 |⑦-⑧-|
14
口口口口 |①--②|
③③①① |----|
口口口口 |③--④|
④④②② |----|
15
⑧④口口 |①-②-|
口口③⑦ |③-④-|
⑥②口口 |⑤-⑥-|
口口①⑤ |⑦-⑧-|
16
口口口口 |①--②|
①①③③ |----|
口口口口 |③--④|
②②④④ |----|
17
口口⑧④ |①-②-|
③⑦口口 |③-④-|
口口⑥② |⑤-⑥-|
①⑤口口 |⑦-⑧-|
18
口口口口 |①--②|
③③①① |----|
口口口口 |③--④|
④④②② |----|
19
口②①口 |①-②-|
口④③口 |③-④-|
口⑥⑤口 |⑤-⑥-|
口口⑦口 |⑦---|
20
⑦口口⑦ |①-②-|
口⑤⑤口 |③-④-|
②⑥⑥① |⑤--⑥|
④口口③ |--⑦-|
21
口口口口 |----|
口口口口 |----|
口口口口 |----|
口口口口 |----|
22
口①②口 |①-②-|
口③④口 |③-④-|
口⑤⑥口 |⑤-⑥-|
口⑦⑧口 |⑦-⑧-|
23
⑦口口⑧ |①-②-|
⑤口口⑥ |③-④-|
③口口④ |⑤-⑥-|
①口口② |⑦-⑧-|
24
口①②口 |①-②-|
口③④口 |③-④-|
口⑤⑥口 |⑤-⑥-|
口⑦口口 |⑦---|
25
口⑦⑧口 |①-②-|
⑤口口⑥ |③-④-|
口③④口 |⑤-⑥-|
①口口② |⑦-⑧-|
26
①口口② |①-②-|
口③④口 |③-④-|
⑤口口⑥ |⑤-⑥-|
口⑦口口 |⑦---|
27
⑦口口⑧ |①-②-|
⑤口口⑥ |③-④-|
③口口④ |⑤-⑥-|
①口口② |⑦-⑧-|
28
口①②口 |①-②-|
口③④口 |③-④-|
口⑤⑥口 |⑤-⑥-|
口⑦口口 |⑦---|
29
口⑦⑧口 |①-②-|
⑤口口⑥ |③-④-|
口③④口 |⑤-⑥-|
①口口② |⑦-⑧-|
30
①口口② |①-②-|
口③④口 |③-④-|
⑤口口⑥ |⑤-⑥-|
口⑦口口 |⑦---|
31
口口①① |①---|
口口②② |--②---|
口口③③ |----③-|
口口口口 |----|
32
口①①口 |①---|
口②②口 |--②---|
口③③口 |----③-|
口口口口 |----|
33
①①口口 |①---|
②②口口 |--②---|
③③口口 |----③-|
口口口口 |----|
34
②①①② |①---|
口口口口 |----|
口口口口 |②---|
口口口口 |----|
35
口①口口 |①---|
口口口口 |----|
口②③口 |②---|
口口口口 |③---|
36
口口口口 |----|
①②②口 |①---|
口口口口 |②--③|
口③③口 |----|
37
①②④③ |①---|
口口口口 |②---|
口口口口 |③---|
口口口口 |④---|
38
口口口口 |①---|
①②②口 |----|
口口口口 |②--③|
口③③口 |----|
39
口口口口 |①---|
④口口③ |②---|
②口口① |③---|
口口口口 |④---|
40
②口口① |①---|
口③③口 |②---|
口口口口 |③--④|
口④④口 |----|
41
口口口口 |①---|
口口口口 |②---|
①②③④ |③---|
口口口口 |④---|
42
⑤口口⑤ |①---|
口①②口 |②---|
口④④口 |③--④|
口③③口 |--⑤-|
43
口口口口 |----|
口口口口 |----|
口口口口 |----|
口口口口 |----|
44
口①②口 |①-②-|
口③④口 |③-④-|
口⑤⑥口 |⑤-⑥-|
口⑦⑧口 |⑦-⑧-|
45
①①②② |①---|
③③④④ |②---|
口口口口 |③---|
口口口口 |④---|
46
口口口口 |①---|
口③③口 |②---|
①①②② |③--④|
口④④口 |----|
47
②①①② |①---|
③口口③ |②---|
④口口④ |③---|
口口口口 |④---|
48
口口口口 |①---|
口③③口 |②---|
口②②口 |③--④|
①④④① |----|
49
口口口口 |①---|
③③④④ |②---|
①①②② |③---|
口口口口 |④---|
50
①①②② |①---|
口③③口 |②---|
口口口口 |③--④|
口④④口 |----|
51
①①口口 |①---|
口口②② |②---|
③③④④ |③---|
口口口口 |④---|
52
口③③口 |①---|
口④④口 |②---|
口④④口 |③--④|
①①②② |----|


不確定度: 0

最終更新:2013年02月26日 17:18