Across the nightmare
Jimmy Weckl

ADVANCED

Level: 7
BPM: 150
Notes: 481

1
口口口口 |----|
口口口口 |----|
口口口口 |----|
口口口口 |----|
2
⑨①②⑩ |①②③④|
⑪③④⑫ |⑤⑥⑦⑧|
⑬⑤⑥口 |⑨⑩⑪⑫|
口⑦⑧口 |⑬---|
3
⑥口⑦⑦ |①-②③|
⑧②⑤⑤ |--④-|
口④①① |⑤-⑥⑦|
口口③③ |--⑧-|
4
口口口口 |①-②③|
口②口口 |--④-|
④口③③
口口①①

口口口口
口口⑤⑤
口口口口 |⑤--⑥|
口⑥⑥口 |----|
5
口口①① |①-②③|
口②口口 |--④-|
口口③③
④口口口

口口口口
口⑧⑦⑦
口⑥口口 |⑤-⑥⑦|
口口⑤⑤ |--⑧-|
6
口②①① |①-②③|
口口⑤⑤ |--④-|
口④③③ |⑤--⑥|
口⑥⑥口 |----|
7
口口①① |①-②③|
口口口口 |--④-|
④口③③
②口口口

⑧口⑦⑦
口⑥口口
口口口口 |⑤-⑥⑦|
口口⑤⑤ |--⑧-|
8
口口⑤⑤ |①-②③|
②④①① |--④-|
口口③③ |⑤--⑥|
口⑥⑥口 |----|
9
口口⑦⑦ |①-②③|
②⑥①① |--④-|
⑧④③③ |⑤-⑥⑦|
口口⑤⑤ |--⑧-|
10
口口口口 |①-②③|
口口①① |--④-|
口④③③
②口口口

口⑤⑤口
口⑥⑥口
口口口口 |⑤--⑥|
口⑦⑦口 |--⑦-|
11
口口口④ |--①-|
①口口⑤ |②-③-|
②口口⑥ |④-⑤-|
③口口⑦ |⑥-⑦-|
12
⑨①②⑩ |①②③④|
⑪③④⑫ |⑤⑥⑦⑧|
⑬⑤⑥⑭ |⑨⑩⑪⑫|
⑮⑦⑧口 |⑬⑭⑮-|
13
⑧口①⑤ |①-②-|
口⑥⑦口 |③-④-|
口④③口 |⑤-⑥⑦|
口②口口 |--⑧-|
14
口口⑤⑤ |①-②③|
⑧④⑦⑦ |--④-|
口⑥①① |⑤-⑥⑦|
②口③③ |--⑧-|
15
口②口口 |①-②-|
口④口⑤ |③-④-|
口⑥⑦③ |⑤-⑥⑦|
⑧口①口 |--⑧-|
16
④②①① |①-②③|
口口③③ |--④-|
⑥口⑤⑤ |⑤-⑥⑦|
口口⑦⑦ |----|
17
口②③口 |①-②-|
⑧口①口 |③-④-|
④⑥⑦口 |⑤-⑥⑦|
口口口⑤ |--⑧-|
18
口②③③ |①-②③|
口④①① |--④-|
口口口口
口口口口

口口口口
口口⑦⑦
⑥⑧⑤⑤ |⑤-⑥⑦|
口口口口 |--⑧-|
19
⑧⑦⑥⑤ |①-②-|
口口口口 |③-④-|
口口口口 |⑤-⑥-|
①②③④ |⑦-⑧-|
20
口⑦⑦口 |①-②-|
口①③口 |③-④-|
⑤②④⑤ |⑤--⑥|
口⑥⑥口 |--⑦-|
21
口口口④ |--①-|
①口口⑤ |②-③-|
②口口⑥ |④-⑤-|
③口口⑦ |⑥-⑦-|
22
⑨①②⑩ |①②③④|
⑪③④⑫ |⑤⑥⑦⑧|
⑬⑤⑥⑭ |⑨⑩⑪⑫|
口⑦⑧口 |⑬⑭--|
23
口⑥⑧口 |①-②-|
口⑤⑦口 |③-④-|
口②④口 |⑤-⑥-|
①口口③ |⑦-⑧-|
24
口⑤口口 |①-②-|
口口⑥口 |③-④-|
②⑦口④ |⑤-⑥-|
口①③口 |⑦---|
25
口⑥⑧口 |①-②-|
⑤口口⑦ |③-④-|
④口口② |⑤-⑥-|
口③①口 |⑦-⑧-|
26
口⑦口口 |①-②-|
口①③⑥ |③-④-|
口⑤口口 |⑤-⑥-|
口②④口 |⑦---|
27
口⑧⑥口 |①-②-|
口⑦⑤口 |③-④-|
口④②口 |⑤-⑥-|
③口口① |⑦-⑧-|
28
口口⑤口 |①-②-|
口⑥口口 |③-④-|
④口⑦② |⑤-⑥-|
口③①口 |⑦---|
29
口⑧⑥口 |①-②-|
⑦口口⑤ |③-④-|
②口口④ |⑤-⑥-|
口①③口 |⑦-⑧-|
30
口⑦⑧口 |①-②-|
口③①⑥ |③-④-|
⑤口口口 |⑤-⑥-|
口④②口 |⑦⑧--|
31
①⑤⑤③ |①---②-|
①②④③ |--③---|
口②④口 |④---⑤-|
口⑥⑥口 |--⑥---|
32
口⑤⑤口 |①---②-|
口②④口 |--③---|
①②④③ |④---⑤-|
①⑥⑥③ |--⑥---|
33
①⑤⑤③ |①---②-|
①②④③ |--③---|
口②④口 |④---⑤-|
口⑥⑥口 |--⑥---|
34
①口口① |①---②-|
③口口③ |--③---|
口②②口 |④---|
④⑤⑤④ |⑤---|
35
①④⑤① |①---|
口口口口 |----|
口②③口 |②-③-|
口口口口 |④-⑤-|
36
口口口口 |--①-|
②③③① |②---|
口口口口 |③--④|
口④④口 |----|
37
①口口② |①-②-|
口口口口 |③④--|
口③④口
口口口口

⑨口口口
⑤口口⑥
口口口口 |⑤-⑥-|
口⑦⑧口 |⑦⑧-⑨|
38
口②②口 |--①-|
④⑤⑥口 |----|
口口①口 |②--③|
口③③口 |④⑤⑥-|
39
口③②① |①---|
口口口④ |②---|
⑤口口口 |③-④-|
口口口⑥ |⑤-⑥-|
40
口④④口 |①-②-|
口③口口 |③---|
口口②口 |④--⑤|
①⑤⑤口 |----|
41
①口口⑥ |--①-|
口⑤口口 |--②-|
口口④② |③-④-|
③口口口 |⑤-⑥-|
42
口④④口 |----|
口②②口 |①---|
①口口口 |②--③|
口③③口 |--④-|
43
口口口④ |--①-|
①口口⑤ |②-③-|
②口口⑥ |④-⑤-|
③口口⑦ |⑥-⑦-|
44
⑨①②⑩ |①②③④|
⑪③④⑫ |⑤⑥⑦⑧|
⑬⑤⑥⑭ |⑨⑩⑪⑫|
⑮⑦⑧口 |⑬⑭⑮-|
45
②口口③ |①--②|
口②③口 |--③-|
口④①口 |-④--|
④⑤⑤① |⑤---|
46
③①①③ |①---|
口②②口 |②---|
口口口口 |③--④|
口④④口 |----|
47
口①口口 |①---|
口⑤口④ |②---|
口口②口 |③--④|
③口⑥口 |-⑤-⑥|
48
②口口② |---①|
口口口口 |----|
口①口口 |②--③|
口③③口 |----|
49
⑦口口⑥ |①-②-|
①口口② |③-④-|
口③④口 |⑤-⑥-|
⑤口口⑧ |⑦-⑧-|
50
口口口口 |①-②-|
口③口口 |③---|
口口②口
口①口口

④口口④
口口口口
口口口口 |④--⑤|
口⑤⑤口 |----|
51
⑨①②⑩ |①②③④|
⑪③④⑫ |⑤⑥⑦⑧|
⑬⑤⑥⑭ |⑨⑩⑪⑫|
⑮⑦⑧⑯ |⑬⑭⑮⑯|
52
⑨①②⑨ |①②③④|
口③④口 |⑤⑥⑦⑧|
⑩⑤⑥⑩ |⑨--⑩|
⑩⑦⑧⑩ |----|


不確定度: 0

最終更新:2013年02月26日 17:17