INFORMER
lecca

ADVANCED

Level: 8
BPM: 112
Notes: 543

1
口口口口 |----|
口口口口 |----|
口口口口 |----|
口口口口 |----|
2
⑥⑤⑦⑧ |①-②-|
①口口② |③-④-|
③口口④ |-⑤⑥⑦|
口⑨⑨口 |⑧-⑨-|
3
⑦⑥⑧⑨ |①-②-|
①口口② |③-④⑤|
③口⑤④ |-⑥⑦⑧|
口⑩⑩口 |⑨-⑩-|
4
⑦⑥⑧⑨ |①-②-|
①口口② |③-④⑤|
③口⑤④ |-⑥⑦⑧|
口⑩⑩口 |⑨-⑩-|
5
⑤⑧⑧⑥ |①-②-|
①口口② |③-④-|
③⑦⑦④ |⑤-⑥-|
口口口口 |⑦-⑧-|
6
⑦⑥⑧⑨ |①-②-|
①口口② |③-④⑤|
③口⑤④ |-⑥⑦⑧|
口⑩⑩口 |⑨-⑩-|
7
⑦⑥⑧⑨ |①-②-|
①口口② |③-④⑤|
③口⑤④ |-⑥⑦⑧|
口⑩⑩口 |⑨-⑩-|
8
⑦⑥⑧⑨ |①-②-|
①口口② |③-④⑤|
③口⑤④ |-⑥⑦⑧|
口⑩⑩口 |⑨-⑩-|
9
口口口口 |①-②-|
①口②② |③-④-|
③③④④
口口口口

口⑧⑧口
口⑦口口
⑨口口口 |⑤⑥⑦⑧|
口⑤⑥口 |--⑨-|
10
③④⑤⑥ |①--②|
口口②口 |----|
⑧⑦口① |③④⑤⑥|
口口②口 |-⑦⑧-|
11
口③⑧口 |①--②|
④口②⑦ |--③-|
⑨⑤⑥① |④⑤⑥⑦|
口口②口 |-⑧⑨-|
12
口③⑧⑨ |①--②|
④口②⑦ |--③-|
口⑤⑥① |④⑤⑥⑦|
口口②口 |-⑧⑨-|
13
③口口口 |①---|
口口口口 |②-③-|
口口口口
①口口②

口口口④
口口口口
⑥⑦口口 |④---|
⑤口口口 |-⑤⑥⑦|
14
口②口③ |①②-③|
口①⑦口 |-④-⑤|
⑥⑤口④ |⑥--⑦|
口⑨⑧口 |-⑧⑨-|
15
⑤④口③ |①-②③|
⑥①口② |-④⑤⑥|
口口口口
口口口口

口口口口
口口⑪⑫
⑦⑧⑨口 |⑦⑧⑨⑩|
口口⑩口 |-⑪⑫-|
16
口④⑤口 |①-②③|
口口⑥口 |-④⑤⑥|
口③口口
口②口①

口口口口
口⑦口口
口口口⑧ |⑦--⑧|
⑩⑨口口 |--⑨⑩|
17
口⑨口口 |①②③④|
②③④⑤ |⑤-⑥⑦|
①口口口 |⑧--⑨|
口⑧⑦⑥ |----|
18
口口口口 |①②③④|
⑧⑦⑥⑤ |⑤⑥⑦⑧|
①②③④
口口口口

⑨⑩⑪⑫
口口口⑬
口口口⑭ |⑨⑩⑪⑫|
口口口⑮ |⑬⑭⑮-|
19
⑦口⑧⑨ |①②③④|
⑥⑤口口 |⑤⑥⑦-|
③④⑬⑩ |⑧⑨-⑩|
②①⑫⑪ |⑪⑫⑬-|
20
③④口⑤ |①②③④|
②口口⑥ |-⑤⑥⑦|
①口口⑦
口口口口

⑫⑬口口
⑪口口口
口口口口 |⑧-⑨⑩|
⑩⑨口⑧ |-⑪⑫⑬|
21
口⑪③④ |①②③④|
口①②⑤ |⑤⑥⑦⑧|
⑫⑩⑨⑥ |⑨⑩-⑪|
口口⑧⑦ |---⑫|
22
口口口口 |①②③④|
①②③④ |⑤⑥-⑦|
口口口⑤
口⑦口⑥

⑩口口口
口口⑪⑫
⑨口口口 |⑧⑨-⑩|
⑧口口口 |--⑪⑫|
23
⑤⑥口口 |①-②③|
④⑦⑧⑨ |④⑤⑥⑦|
③②口① |⑧⑨-⑩|
⑪口口⑩ |--⑪-|
24
口⑪③④ |①-②③|
①口②⑤ |④⑤⑥⑦|
⑩口⑨⑥ |⑧⑨-⑩|
口口⑧⑦ |--⑪-|
25
口口⑧① |①②③④|
口口⑦② |⑤⑥⑦⑧|
口口⑥③
口口⑤④

⑩⑨口口
口口口口
⑪口口⑫ |⑨⑩-⑪|
口口口口 |--⑫-|
26
口②口① |①-②-|
⑦⑥口⑤ |③-④⑤|
口③⑩④ |-⑥⑦-|
⑧口⑨口 |⑧-⑨⑩|
27
口⑤④口 |①②③④|
口口③② |⑤-⑥⑦|
⑦⑥口①
口口口口

⑧口口口
⑨⑩⑪⑫
口口口⑬ |-⑧⑨⑩|
口口口⑭ |⑪⑫⑬⑭|
28
⑤④口口 |①②-③|
⑥③口口 |④⑤⑥⑦|
⑦口口口
口②①口

口口⑫⑪
口⑭⑬⑩
口口⑧⑨ |-⑧⑨⑩|
口口口口 |⑪⑫⑬⑭|
29
口⑧⑦⑥ |-①②③|
口口口⑤ |④⑤⑥⑦|
口口口④ |⑧---|
口①②③ |----|
30
①口口② |①-②-|
③口口④ |③-④-|
口口口口
口口口口

⑦口口⑧
口⑥⑥口
口口口口 |⑤--⑥|
口⑤⑤口 |--⑦⑧|
31
口口口口 |①-②-|
口口口口 |③-④-|
③口口④
①口口②

⑥口口⑦
口⑤⑤口
口口口口 |⑤-⑥⑦|
⑧口口口 |--⑧-|
32
③口口⑦ |①-②-|
②口口⑥ |③-④-|
①口口⑤ |⑤-⑥-|
口⑧⑧④ |⑦-⑧-|
33
⑤口口⑤ |①---|
③口口③ |②---|
④①①④ |③--④|
②口口② |--⑤-|
34
口②④⑤ |①-②-|
口口口口 |③-④⑤|
口①③口
口口口口

口口口口
口口⑨⑩
⑥⑦口口 |-⑥⑦-|
口口⑧口 |⑧-⑨⑩|
35
⑧口口⑦ |①-②-|
②④⑤口 |③-④⑤|
口口口口 |--⑥-|
①③口⑥ |⑦--⑧|
36
⑩⑨口口 |①-②-|
①口口② |③-④⑤|
③口⑤④ |-⑥⑦-|
⑦⑥口⑧ |⑧-⑨⑩|
37
口口口口 |①-②-|
①口口② |③-④-|
③口口④
口口口口

⑦口口⑦
⑥口口⑥
口口口口 |⑤--⑥|
口⑤⑤口 |--⑦-|
38
口口④⑤ |--①②|
口口⑦⑦ |③-④⑤|
①②③口 |-⑥-⑦|
口口⑥⑥ |----|
39
⑧⑧口口 |--①②|
①②③④ |③④⑤⑥|
口口口⑤ |-⑦-⑧|
⑦⑦口⑥ |----|
40
⑨⑨口口 |--①②|
⑦⑥⑤④ |③-④⑤|
①②③口 |⑥⑦-⑧|
口口⑧⑧ |--⑨-|
41
口口②② |①-②-|
口口口口 |③-④-|
①①③③
口④④口

⑥口口⑥
口⑤⑤口
⑦口口口 |⑤---|
口口口口 |⑥-⑦-|
42
口口口口 |①--②|
口口②口 |--③-|
③口口①
口口②口

④⑤⑥⑦
口口口口
⑨⑧口口 |④⑤⑥⑦|
口口口口 |-⑧⑨-|
43
口③⑧口 |①--②|
④口②⑦ |--③-|
⑨⑤⑥① |④⑤⑥⑦|
口口②口 |-⑧⑨-|
44
口③⑧⑨ |①--②|
④口②⑦ |--③-|
口⑤⑥① |④⑤⑥⑦|
口口②口 |-⑧⑨-|
45
③口口④ |①---|
口口口口 |②-③-|
⑤口口口 |④---|
①口口② |--⑤-|
46
③④⑤⑥ |①--②|
口口②口 |----|
⑧⑦口① |③④⑤⑥|
口口②口 |-⑦⑧-|
47
口③⑧口 |①--②|
④口②⑦ |--③-|
⑨⑤⑥① |④⑤⑥⑦|
口口②口 |-⑧⑨-|
48
口③⑧⑨ |①--②|
④口②⑦ |--③-|
口⑤⑥① |④⑤⑥⑦|
口口②口 |-⑧⑨-|
49
③口口④ |①---|
口口口口 |②-③-|
口口口口 |④---|
①口口② |----|
50
⑥⑤⑦⑧ |①-②-|
①口口② |③-④-|
③口口④ |-⑤⑥⑦|
口⑨⑨口 |⑧-⑨-|
51
⑦⑥⑧⑨ |①-②-|
①口口② |③-④⑤|
③口⑤④ |-⑥⑦⑧|
口⑩⑩口 |⑨-⑩-|
52
⑦⑥⑧⑨ |①-②-|
①口口② |③-④⑤|
③口⑤④ |-⑥⑦⑧|
口⑩⑩口 |⑨-⑩-|
53
②②口口 |①-②-|
口口③③ |③---|
①①口口
口口口口

口口口口
⑤⑤口口
⑦口⑥口 |④-⑤-|
④④口口 |⑥-⑦-|
54
口口口口 |①--②|
口口②口 |----|
口口口① |----|
口口②口 |----|

不確定度: 0

最終更新:2014年08月01日 00:16