FANTASTIC★DREAMER feat.SO-TA,Rhyzm Horse,Yoonji
MAYA feat.SO-TA,Rhyzm Horse,Yoonji

BASIC

Level: 3
BPM: 128
Notes: 266

1
口口口口 |----|
口口口口 |----|
口口口口 |----|
口口口口 |----|
2
口口口口 |①---|
口①②口 |----|
口口口口 |②---|
口口口口 |----|
3
①①口口 |①---|
②②口口 |②---|
③③口口 |③---|
④④口口 |④---|
4
口口口口 |①---|
口①②口 |----|
口口口口 |②---|
口口口口 |----|
5
口口①① |①---|
口口②② |②---|
口口③③ |③---|
口口④④ |④---|
6
口口口口 |①---|
①口口② |----|
口口口口 |②---|
口口口口 |----|
7
口①①口 |①---|
口②②口 |②---|
口③③口 |③---|
口④④口 |④---|
8
口口口口 |①---|
口①②口 |----|
口口口口 |②---|
口口口口 |----|
9
①口口① |①---|
②口口② |②---|
③口口③ |③---|
④口口④ |④---|
10
口口口口 |①---|
口②②口 |②---|
口口口口 |----|
口①①口 |----|
11
①①口口 |----|
②②口口 |----|
口口口口 |①---|
口口口口 |②---|
12
口口口口 |①---|
口口口口 |----|
①①口口 |----|
口口口口 |----|
13
口口①① |----|
口口②② |----|
口口口口 |①---|
口口口口 |②---|
14
口口口口 |①---|
口口口口 |----|
口口①① |----|
口口口口 |----|
15
口①①口 |----|
口②②口 |----|
口口口口 |①---|
口口口口 |②---|
16
口口口口 |①---|
口口口口 |----|
口①①口 |----|
口口口口 |----|
17
②口口② |①---|
③①①③ |----|
口口口口 |②---|
口口口口 |③---|
18
②口口口 |①---|
口口口口 |----|
①口口① |----|
口口口口 |--②-|
19
口口口① |----|
口口口口 |----|
口口口口 |----|
口口口口 |--①-|
20
口口口口 |----|
①口口口 |----|
口口口口 |----|
口口口口 |--①-|
21
口口口口 |----|
口②口① |--①-|
口口口口 |----|
口口口口 |--②-|
22
口口口口 |--①-|
口口①口 |--②-|
口②③口 |--③-|
口④口口 |--④-|
23
口口口口 |--①-|
口口口口 |--②-|
口口口口 |--③-|
②口①③ |----|
24
①口口口 |①---|
口②口口 |②---|
口口③口 |③---|
口口口④ |④---|
25
口口口① |①---|
口口②口 |②---|
口③口口 |③---|
④口口口 |④---|
26
口口口口 |①---|
口口口口 |②---|
口③④口 |③---|
口①②口 |④---|
27
口③④口 |①---|
口①②口 |②---|
口口口口 |③---|
口口口口 |④---|
28
①口口③ |①---|
口②④口 |②---|
口口口口 |③---|
口口口口 |④---|
29
口①②口 |①---|
口口口口 |②---|
口③④口 |③---|
口口口口 |④---|
30
口口口口 |①---|
口口口口 |②---|
口③③口 |③---|
①口口② |----|
31
口③③口 |①---|
①④④② |②---|
口口口口 |③---|
口口口口 |④---|
32
口口口④ |①---|
口口口③ |②---|
口口口② |③---|
口口口① |④---|
33
口①①口 |①---|
口②②口 |②---|
口③③口 |③---|
口④④口 |④---|
34
④口口口 |①---|
③口口口 |②---|
②口口口 |③---|
①口口口 |④---|
35
口①①口 |①---|
口②②口 |②---|
口③③口 |③---|
口④④口 |④---|
36
口①②口 |①---|
口③④口 |②---|
口口口口 |③---|
口口口口 |④---|
37
①口口① |①---|
②口口② |②---|
③口口③ |③---|
④口口④ |④---|
38
口口口口 |①---|
口②②口 |----|
口口口口 |②---|
口①①口 |----|
39
①①口口 |①---|
口口②② |②---|
③③口口 |③---|
口口口口 |----|
40
④③②① |①---|
口口口口 |②---|
口口口口 |③---|
口口口口 |④---|
41
口口口口 |①---|
口口口口 |②---|
④③②① |③---|
口口口口 |④---|
42
口口口口 |①---|
①②③④ |②---|
口口口口 |③---|
口口口口 |④---|
43
口口口口 |①---|
口口口口 |----|
口②②口 |②---|
口①①口 |----|
44
口口口口 |①---|
口口口口 |②---|
口口口口 |③---|
④③②① |④---|
45
口口口口 |①---|
④③②① |②---|
口口口口 |③---|
口口口口 |④---|
46
①②③④ |①---|
口口口口 |②---|
口口口口 |③---|
口口口口 |④---|
47
③口口③ |①---|
口②②口 |②---|
口①①口 |③---|
口口口口 |----|
48
口口口口 |①---|
①口口② |----|
①口口② |②---|
口口口口 |----|
49
口①②口 |①---|
口③④口 |②---|
口口口口 |③---|
口口口口 |④---|
50
口口口口 |①---|
①口口② |----|
①口口② |②---|
口口口口 |----|
51
②②口口 |①---|
③③口口 |----|
口①①口 |②---|
口口口口 |③---|
52
口口②② |①---|
口口③③ |----|
①①口口 |②---|
口口口口 |③---|
53
口口口口 |①---|
口口口口 |----|
口口①① |----|
②口口口 |②---|
54
口口口口 |①---|
口口口口 |----|
口②②口 |②---|
口口口① |----|
55
口②②口 |①---|
口①①口 |----|
口口口口 |②---|
口口口口 |----|
56
口口口口 |①---|
①口口② |----|
①口口② |②---|
口口口口 |----|
57
口①②口 |①---|
口③④口 |②---|
口口口口 |③---|
口口口口 |④---|
58
口口口口 |①---|
①口口② |----|
①口口② |②---|
口口口口 |----|
59
②②口口 |①---|
③③口口 |----|
口①①口 |②---|
口口口口 |③---|
60
口口②② |①---|
口口③③ |----|
①①口口 |②---|
口口口口 |③---|
61
口口口口 |①---|
口口口口 |----|
口口①① |----|
口口口口 |----|
62
口口口口 |①---|
口口口口 |----|
口②②口 |②---|
口①①口 |----|
63
②口口② |①---|
口①①口 |----|
口口口口 |②---|
口口口口 |----|
64
口口口口 |①---|
口①①口 |----|
口口口口 |----|
口口口口 |----|

不確定度: 0

最終更新:2014年07月31日 23:55