FANTASTIC★DREAMER feat.SO-TA,Rhyzm Horse,Yoonji
MAYA feat.SO-TA,Rhyzm Horse,Yoonji

ADVANCED

Level: 8
BPM: 128
Notes: 614

1
口口口口 |----|
口口口口 |----|
口口口口 |----|
口口口口 |----|
2
③口口② |①-②-|
口⑤④口 |③-④⑤|
口口口口
口①①口

口⑥口口
口口口口
口口口⑦ |--⑥-|
口⑧口口 |⑦-⑧-|
3
①口口② |①-②-|
口⑤④⑥ |③-④⑤|
⑦口③口 |--⑥-|
口口口⑧ |⑦-⑧-|
4
①口⑤② |--①-|
口③④口 |②-③④|
⑥口口口 |--⑤-|
口口⑦口 |⑥-⑦-|
5
②口口① |①-②-|
⑥④⑤口 |③-④⑤|
口③口⑦ |--⑥-|
⑧口口口 |⑦-⑧-|
6
口口⑤口 |--①-|
口②①口 |②-③④|
④⑥口③ |--⑤-|
口口⑦口 |⑥-⑦-|
7
①口口② |①-②-|
口⑤④⑧ |③-④⑤|
⑦口③口 |--⑥-|
口口口⑥ |⑦-⑧-|
8
⑤①①⑤ |--①-|
⑦②②⑦ |②-③④|
④⑥⑥③ |--⑤-|
口④③口 |⑥-⑦-|
9
口②③口 |①-②-|
口②③口 |③-④⑤|
④口口⑤
①④⑤①

⑦⑧⑧⑦
口口口口
口⑥⑥口 |--⑥-|
口口口口 |⑦-⑧-|
10
口口口口 |①--②|
口①①口 |----|
②口口② |----|
口②②口 |----|
11
口③②口 |----|
③口口② |--①-|
口⑤⑤口 |②-③-|
①⑤⑤④ |④-⑤-|
12
①口口① |--①-|
口口口口 |----|
①口口① |----|
口口口口 |----|
13
口②③口 |----|
②口口③ |--①-|
口⑤⑤口 |②-③-|
④⑤⑤① |④-⑤-|
14
①口口① |--①-|
口口口口 |----|
①口口① |----|
口口口口 |----|
15
口③②口 |----|
③口口② |--①-|
口⑤⑤口 |②-③-|
①⑤⑤④ |④-⑤-|
16
①口口① |--①-|
口口口口 |----|
①口口① |----|
口口口口 |----|
17
口口口口 |①---|
口①①口 |--②-|
口口口口
口①①②

口③④口
③口口④
口⑥⑥口 |③-④-|
⑤⑥⑥口 |⑤-⑥-|
18
①口口① |--①-|
口口口口 |----|
①口口①
口口口口

②②口口
口口口口
口口口口 |----|
口口口口 |--②-|
19
口口②② |--①-|
口口口口 |----|
①①口口 |----|
口口口口 |--②-|
20
口口口口 |--①-|
②②口口 |----|
口口①① |----|
口口口口 |--②-|
21
④④口口 |--①-|
口口②② |--②-|
口口口口 |--③-|
①①③③ |--④-|
22
口口②② |--①-|
④④口口 |--②-|
①①③③ |--③-|
口口口口 |--④-|
23
口④④口 |①-②-|
口口①① |③-④-|
口口口口
②②③③

口口口口
⑨⑤⑥⑩
⑪⑦⑧⑫ |⑤⑥⑦⑧|
口口口口 |⑨⑩⑪⑫|
24
②⑧⑧③ |①-②-|
④口口⑤ |③-④-|
口⑥⑦口 |⑤-⑥⑦|
口①①口 |-⑧--|
25
①口口④ |①②③-|
口⑤②口 |④⑤⑥⑦|
③口口⑥
口⑦口口

口⑨⑩口
⑪口⑫⑧
口⑬口口 |⑧-⑨⑩|
口口口口 |-⑪⑫⑬|
26
口口口口 |①-②③|
口②口口 |④-⑤-|
口口③口
⑤④①⑤

⑥口口⑦
⑧口口⑨
⑩口口⑪ |⑥⑦⑧⑨|
口⑫⑬口 |⑩⑪⑫⑬|
27
⑧①③⑧ |①-②-|
口⑥⑦口 |③-④-|
口④②口 |⑤-⑥⑦|
⑤口口⑤ |-⑧--|
28
⑥①①⑥ |①-②③|
口口口口 |-④⑤-|
⑦②③⑧ |⑥-⑦⑧|
⑨④⑤⑩ |-⑨⑩-|
29
口①②口 |①②③④|
⑤③④⑥ |-⑤⑥-|
口⑦⑧口 |⑦⑧⑨⑩|
⑪⑨⑩⑫ |-⑪⑫-|
30
①②③口 |①②③-|
⑦⑥⑤④ |④⑤⑥⑦|
⑨⑩⑩⑧ |⑧-⑨-|
口口口口 |--⑩-|
31
②口口③ |①-②-|
②口口③ |③---|
口口口口
口①①口

口④④口
口⑤口口
⑦口口口 |④-⑤⑥|
口口⑥口 |⑦---|
32
口①⑤口 |--①-|
口口口② |②-③-|
④口口⑥ |④-⑤-|
口⑦③口 |⑥-⑦-|
33
⑤口口② |①-②-|
①口口⑥ |③-④-|
⑧口口口 |⑤-⑥-|
④口⑦③ |⑦-⑧-|
34
①口口④ |--①-|
⑤口口口 |②-③-|
口口口⑦ |④-⑤-|
②⑥口③ |⑥-⑦-|
35
口⑤①⑧ |①-②-|
口口口④ |③-④-|
②口口口 |⑤-⑥-|
⑥口③⑦ |⑦-⑧-|
36
口口①⑤ |--①-|
④口口口 |②-③-|
口口口② |④-⑤-|
⑦③口⑥ |⑥-⑦-|
37
①⑤口口 |①-②-|
⑧口口② |③-④-|
④口口⑥ |⑤-⑥-|
口⑦③口 |⑦-⑧-|
38
口口口口 |①---|
口①①口 |②-③-|
②②③③
口口口口

④⑥口⑤
⑥④⑤口
口口口口 |--④-|
口口口口 |⑤-⑥-|
39
口口①口 |①-②-|
口口口① |③-④-|
③④④② |----|
口③②口 |----|
40
口①①口 |--①-|
②⑤⑤口 |②③④-|
口⑥⑦③ |⑤-⑥⑦|
④⑧⑨口 |-⑧⑨-|
41
①⑤⑥① |-①-②|
②④③口 |③④-⑤|
口⑦⑧口 |⑥-⑦⑧|
口⑨⑩口 |-⑨⑩-|
42
①口口① |--①-|
⑤②②⑤ |②-③④|
⑦③④口 |-⑤-⑥|
⑥⑦口⑥ |--⑦-|
43
①④⑤② |①-②-|
口①②口 |③-④⑤|
口口口③
口口③口

⑧口口⑧
口口口口
口⑦⑦口 |-⑥-⑦|
⑥口口⑥ |--⑧-|
44
口①①口 |--①-|
口②③口 |②③-④|
④口口口
口口口口

口⑦⑦口
⑥口口⑤
口⑧⑨口 |⑤⑥-⑦|
口口口口 |-⑧⑨-|
45
口口口口 |--①-|
口②②口 |②-③-|
③口口③
口①①口

口口口口
口⑦⑧口
口⑤⑥口 |④-⑤⑥|
④口口④ |-⑦⑧-|
46
①②③口 |--①②|
口口口④ |③-④-|
口口口口
口口口口

⑦口口⑦
口口口口
口⑤⑥口 |⑤⑥-⑦|
口口口口 |----|
47
④②②⑤ |①-②-|
①④⑤③ |③-④⑤|
①⑥⑥③ |-⑥--|
口口口口 |----|
48
②口口① |--①-|
口④③口 |②-③④|
口口口口
口口口口

⑦⑤⑤⑦
口口口口
口口口口 |--⑤-|
口⑥⑥口 |⑥-⑦-|
49
③口口③ |①---|
②①①② |②--③|
②①①②
口口口口

口口口口
口④口口
口口⑤口 |--④-|
口⑥口口 |⑤-⑥-|
50
①口口① |--①-|
②⑤⑥② |②-③-|
③⑤⑥③ |--④-|
口④④口 |⑤-⑥-|
51
①①口口 |①--②|
口口口口 |--③-|
口口口口
③口②②

口⑤④口
⑤口口④
口⑦⑦口 |④-⑤-|
口⑦⑦⑥ |⑥-⑦-|
52
①③④① |--①-|
③口口④ |--②-|
①⑥⑥① |③-④-|
⑤⑥⑥② |⑤-⑥-|
53
①口口① |--①-|
口口口口 |----|
①口口①
口口口口

③②口口
②③口④
口口④口 |--②-|
口口口口 |③-④-|
54
⑥口口⑦ |①-②③|
④口①⑤ |--④-|
口口口① |⑤-⑥-|
口②③⑧ |⑦-⑧-|
55
口④⑤口 |①--②|
②④⑤② |--③-|
③口口③ |--④-|
①口口口 |⑤---|
56
②口口① |--①-|
口④③口 |②-③④|
口口口口
口口口口

⑦⑤⑤⑦
口口口口
口口口口 |--⑤-|
口⑥⑥口 |⑥-⑦-|
57
⑤口口⑤ |①-②-|
②口口② |③-④⑤|
口①①口
③口口④

口口口口
口⑥口口
口口⑦口 |--⑥-|
口⑧口口 |⑦-⑧-|
58
③口口③ |--①-|
②⑤⑥② |②-③-|
①⑤⑥① |--④-|
口④④口 |⑤-⑥-|
59
口口口② |①--②|
①口口口 |--③-|
口口口口
③口口口

口⑤④口
⑤口口④
口⑦⑦口 |④-⑤-|
口⑦⑦⑥ |⑥-⑦-|
60
①③④① |--①-|
③口口④ |--②-|
①⑥⑥① |③-④-|
⑤⑥⑥② |⑤-⑥-|
61
①口口① |--①-|
②口口③ |----|
①口口① |--②-|
④口口口 |③-④-|
62
口口口⑧ |①-②③|
口⑦口口 |--④-|
口②③⑥ |⑤-⑥-|
⑤④④① |⑦-⑧-|
63
口①②口 |①--②|
①口口② |--③-|
③口口④ |--④-|
⑤③④⑤ |⑤---|
64
口口口口 |①---|
口①①口 |----|
口①①口 |----|
口口口口 |----|

不確定度: 0

最終更新:2014年07月31日 23:54