この子の七つのお祝いに
あさき

ADVANCED

Level: 8
BPM: 161
Notes: 454

1
口口口口 |----|
口口口口 |----|
口口口口 |----|
口口口口 |----|
2
口口口口 |----|
口口口口 |----|
口口口口 |----|
口口口口 |----|
3
口口口口 |----|
口口口口 |----|
口口口口 |----|
口口口口 |----|
4
口口口口 |①--②|
口①口口 |--③-|
口②①口 |----|
口③②① |----|
5
口口口⑦ |①-②-|
口口口④ |③-④-|
②⑥口③ |⑤-⑥-|
①⑤口口 |⑦---|
6
①②③口 |①--②|
口①②口 |--③-|
口口①口 |----|
口口口口 |----|
7
口口⑤① |①-②-|
③口⑥② |③-④-|
④口口口 |⑤-⑥-|
⑦口口口 |⑦---|
8
⑤口口④ |①-②-|
⑥口口③ |③-④-|
⑦口口② |⑤-⑥-|
⑧口口① |⑦-⑧-|
9
口⑦④口 |①-②-|
口⑤③口 |③-④-|
口⑥②口 |⑤-⑥-|
口口①口 |⑦---|
10
⑤口口① |①-②-|
⑥口口② |③-④-|
⑦口口③ |⑤-⑥-|
⑧口口④ |⑦-⑧-|
11
口⑧①口 |①-②-|
口⑦②口 |③-④-|
口⑥③口 |⑤-⑥-|
口⑤④口 |⑦-⑧-|
12
①口口① |①--②|
③⑦②③ |③-④-|
口④⑥口 |--⑤-|
口⑤口口 |⑥-⑦-|
13
口口口口 |---①|
②④①② |②-③-|
⑤③口⑤ |--④-|
口口口口 |---⑤|
14
⑥口⑤⑥ |----|
②④①② |-①②-|
口③口口 |③--④|
口口口口 |-⑤⑥-|
15
口①口口 |----|
③口口口 |-①-②|
口③口② |--③-|
口口③口 |----|
16
①口口口 |①-②-|
⑤③口口 |③-④-|
⑦口②口 |⑤-⑥-|
口⑧⑥④ |⑦-⑧-|
17
口⑤口① |①-②-|
⑥口③⑦ |③-④-|
口②口⑦ |⑤-⑥-|
④口口口 |⑦---|
18
①口口口 |①-②-|
⑤③口口 |③-④-|
⑦口②口 |⑤-⑥-|
口⑧⑥④ |⑦-⑧-|
19
口⑤口① |①-②-|
⑥口③口 |③-④-|
口②口⑦ |⑤-⑥-|
④口⑧口 |⑦-⑧-|
20
①口口口 |①-②-|
⑤③口口 |③-④-|
⑦口②口 |⑤-⑥-|
口⑧⑥④ |⑦-⑧-|
21
口⑤口① |①-②-|
⑥口③⑦ |③-④-|
口②口⑦ |⑤-⑥-|
④口口口 |⑦---|
22
①口口口 |①-②-|
⑤③口口 |③-④-|
⑦口②口 |⑤-⑥-|
口⑧⑥④ |⑦-⑧-|
23
口口②口 |①-②-|
口④⑥① |③-④-|
口⑦③口 |⑤-⑥-|
⑤口⑧口 |⑦-⑧-|
24
①口口口 |①---|
①口③② |--②-|
口口④口 |--③-|
口口⑤口 |④-⑤-|
25
①口口口 |①---|
①口③② |--②-|
口口④口 |--③-|
口口⑤口 |④-⑤-|
26
①口口口 |①---|
①口③② |--②-|
口口④口 |--③-|
口口⑤口 |④-⑤-|
27
口③③④ |①---|
⑥②⑤口 |②--③|
①①口口 |--④-|
口口口口 |⑤-⑥-|
28
①口口口 |①---|
口②④③ |②-③-|
①口⑤口 |--④-|
口口⑥口 |⑤-⑥-|
29
①口口口 |①---|
口②④③ |②-③-|
①口⑤口 |--④-|
口口⑥口 |⑤-⑥-|
30
①口口口 |①---|
口②④③ |②-③-|
①口⑤口 |--④-|
口口⑥口 |⑤-⑥-|
31
口①口口 |①②③-|
⑥②⑤⑥ |④-⑤⑥|
口③口口 |----|
④口口④ |----|
32
①口口口 |①-②-|
⑤③口口 |③-④-|
⑦口②口 |⑤-⑥-|
口⑧⑥④ |⑦-⑧-|
33
口⑤口① |①-②-|
⑥口③⑦ |③-④-|
口②口⑦ |⑤-⑥-|
④口口口 |⑦---|
34
口口口口 |----|
口口口口 |----|
口口口口 |----|
口口口口
35
口口口口 |----|
口口口口 |----|
口口口口 |----|
口口口口
36
①②口口 |①②③-|
⑥④口口 |④-⑤-|
⑧口③口 |⑥-⑦-|
口⑨⑦⑤ |⑧-⑨-|
37
口⑤口① |①-②-|
⑥口③口 |③-④-|
口②口⑦ |⑤-⑥-|
④口⑧口 |⑦-⑧-|
38
①口口口 |①-②-|
口③口口 |③-④-|
口口②口
口口口④
39
口口口口 |①-②-|
①口口口 |-③④-|
口口口口 |-|
③④②口
40
②⑥口口 |①--②|
④①⑤口 |--③-|
口③①⑥ |④--⑤|
口口④② |--⑥-|
41
①口口① |①--②|
口口口口 |--③-|
口②②口 |④---|
④③③④ |----|
42
口口口口 |①-②-|
口①口口 |③-④-|
口⑤②口 |⑤---|
口③④口
43
①③口⑦ |①-②-|
口④⑥⑧ |③-④-|
②⑤口口 |⑤-⑥-|
口口口口 |⑦-⑧-|
44
口口口口 |①-②-|
口口口口 |③-④-|
口口口①
口④③②
45
④⑤口口 |①-②-|
③口口口 |③-④-|
②口口口 |⑤---|
①口口口
46
⑤口①口 |①-②-|
⑥③②口 |③-④-|
⑦④口口 |⑤-⑥-|
⑧口口口 |⑦-⑧-|
47
口口口口 |①-②-|
口口口⑧ |③-④-|
⑤⑦⑥④ |⑤-⑥-|
口①②③ |⑦-⑧-|
48
③口③② |①-②-|
口①口口 |③-④-|
口口④口
口口口口

口口口口
口⑦口⑦
⑤⑤口⑧ |⑤-⑥-|
口口⑥口 |⑦-⑧-|
49
口口①① |①-②-|
口口口口 |③-④-|
③口③口
④②口口

口⑦⑧⑧
⑤⑤口口
口口口口 |⑤-⑥-|
口口⑥口 |⑦-⑧-|
50
①口口口 |①---|
口口③口 |--②-|
②④①② |--③-|
口口⑤口 |④-⑤-|
51
①口口口 |①---|
口口③口 |②-③-|
口口①②
口口口口

⑥口口口
口口口口
口④⑥口 |--④-|
口口⑤口 |⑤-⑥-|
52
口⑤口口 |--①-|
②①④口 |--②-|
口③⑥口 |③-④-|
口口口① |⑤-⑥-|
53
口⑤口口 |①---|
②①④口 |②-③-|
口③⑥口 |--④-|
口口口① |⑤-⑥-|
54
口口口② |--①-|
口①口口 |----|
③②口口 |--②-|
口④口① |③-④-|
55
口口口③ |①---|
口②口口 |②-③-|
④③①口 |--④-|
口⑤口口 |--⑤-|
56
口口口口 |--①-|
口②④口 |②---|
口③①口 |--③-|
口口口口 |-④--|
57
口口口① |①---|
口口口口 |----|
⑤⑤口④ |②-③-|
②口③③ |④-⑤-|
58
口口口⑥ |①-②-|
口口⑤③ |③-④-|
口⑦②口 |--⑤-|
④①口口 |⑥-⑦-|
59
口口③口 |----|
口①口口 |①-②-|
②口口④ |--③-|
口口④口 |--④-|
60
口②口口 |①---|
②口①口 |②-③-|
口①口口
口③口口

口口口口
口口⑥口
口⑤④口 |--④-|
口口口口 |⑤-⑥-|
61
①⑥口口 |①-②-|
⑤②口口 |③-④-|
口口④口 |⑤-⑥-|
口口口③
62
口口③口 |①-②-|
口口口④ |③-④-|
⑥口口① |⑤-⑥-|
口⑤②口
63
口口⑥① |①-②-|
口口②⑤ |③-④-|
口④口口 |⑤-⑥-|
③口口口
64
口③口口 |①-②-|
④口口口 |③-④-|
①口口⑥ |⑤-⑥-|
口②⑤口
65
①⑥口口 |①-②-|
⑤②口口 |③-④-|
口口④口 |⑤-⑥-|
口口口③
66
口口③口 |①-②-|
口口口④ |③-④-|
⑥口口① |⑤-⑥-|
口⑤②口
67
口①口① |①---|
②口②口 |②---|
口③口③ |③---|
口口口口
68
口③口② |①---|
④口⑤口 |②-③-|
口口口口 |④-⑤-|
①口①口
69
口口口口 |①---|
口口口口 |②---|
②②口① |③---|
口③口口
70
口①口口 |-①--|
口口口口 |----|
③口口② |②---|
口口口口 |-③--|
71
口口口口 |----|
口口①口 |①---|
口口口口 |-②--|
口口②口 |----|


不確定度: 0

最終更新:2013年03月29日 20:41