この子の七つのお祝いに
あさき

BASIC

Level: 5
BPM: 161
Notes: 214

1
口口口口 |----|
口口口口 |----|
口口口口 |----|
口口口口 |----|
2
口口口口 |----|
口口口口 |----|
口口口口 |----|
口口口口 |----|
3
口口口口 |----|
口口口口 |----|
口口口口 |----|
口口口口 |----|
4
口口口口 |①---|
口①口口 |----|
口口①口 |----|
口口口口 |----|
5
口口口口 |①---|
②口③口 |②---|
口①口口 |③---|
口口口口 |----|
6
口口口口 |①---|
口①口口 |----|
口口①口 |----|
口口口口 |----|
7
口口口口 |①---|
口口①口 |②---|
口③口② |③---|
口口口口 |----|
8
口口口口 |①---|
口口口口 |----|
口口②口 |②---|
口口①口 |----|
9
口口②口 |①---|
口口①口 |----|
口口口口 |②---|
口口口口 |----|
10
口①口口 |①---|
口②口口 |②---|
口③口口 |③---|
口④口口 |④---|
11
口口口口 |①---|
口口②口 |----|
口口口口 |----|
口口①口 |②---|
12
口口口口 |①---|
口口口口 |----|
口口①口 |----|
口口口口 |----|
13
口口口口 |----|
口①①口 |----|
口口口口 |----|
口口口口 |---①|
14
口口口口 |----|
①口口① |----|
口口口口 |①---|
口口口口 |----|
15
口①①口 |----|
口②②口 |-①-②|
口口口口 |--③-|
口③③口 |----|
16
口口口口 |①---|
口口②① |----|
口口①口 |②---|
口口口口 |----|
17
口口口口 |①---|
②①口口 |②---|
③④口口 |③---|
口口口口 |④---|
18
①②口口 |①---|
口①口口 |----|
口口口口 |②---|
口口口口 |----|
19
口口①② |①---|
口口④③ |②---|
口口口口 |③---|
口口口口 |④---|
20
口口口口 |①---|
口口口口 |----|
口口②① |②---|
口口①口 |----|
21
口口口口 |①---|
口口口口 |②---|
②①口口 |③---|
③④口口 |④---|
22
口口口口 |①---|
①②口口 |----|
口①口口 |②---|
口口口口 |----|
23
口口口口 |①---|
口口①② |②---|
口口④③ |③---|
口口口口 |④---|
24
口口口口 |①---|
口口口口 |--②-|
口口口口 |----|
口②①口 |----|
25
口口口口 |①---|
口口口口 |--②-|
①②②① |----|
口口口口 |----|
26
口口口口 |①---|
口口口口 |--②-|
①②②① |----|
口口口口 |----|
27
口口口口 |①---|
口口口口 |----|
①口口① |----|
口口口口 |----|
28
①②②① |①---|
口口③口 |--②-|
口④口口 |--③-|
口口⑤口 |④-⑤-|
29
①②②① |①---|
口③口口 |--②-|
口口④口 |--③-|
口⑤口口 |④-⑤-|
30
①②②① |①---|
口口③口 |--②-|
口④口口 |--③-|
口口⑤口 |④-⑤-|
31
口口口口 |①---|
口口口口 |----|
①口口① |----|
口口口口 |----|
32
口口口口 |①---|
口口②① |----|
口口①口 |②---|
口口口口 |----|
33
口口口口 |①---|
②①口口 |②---|
③④口口 |③---|
口口口口 |④---|
34
口口口口 |----|
口口口口 |----|
口口口口 |----|
口口口口
35
口口口口 |----|
口口口口 |----|
口口口口 |----|
口口口口
36
口口口口 |----|
口口口口 |----|
口口口口 |----|
口口口口 |----|
37
口口口口 |①---|
①②口口 |----|
口①口口 |②---|
口口口口 |----|
38
口口口口 |①---|
口口①② |②---|
口口口口
口口口口
39
口口口口 |①---|
口口口口 |②---|
口口②① |-|
口口口口
40
口口口口 |①---|
口①①口 |----|
口②②口 |②---|
口口口口 |----|
41
口口口口 |①---|
口口口口 |----|
口口口口 |----|
口①①口 |----|
42
口①口口 |①---|
口口②口 |②---|
口口口③ |③---|
口口口口
43
②口口① |①---|
口③口口 |----|
口口口口 |②---|
口口口口 |③---|
44
口口口口 |①---|
口口口口 |②---|
口口①口
口口口②
45
口口口口 |①---|
③口口口 |②---|
口②口口 |③---|
口口①口
46
口口②① |①---|
口口口口 |----|
口口口口 |②---|
口口口口 |----|
47
①口口口 |①---|
口②口口 |②---|
口口③口 |③---|
口口口④ |④---|
48
口口口口 |①---|
③口口口 |②---|
口②口口 |③---|
口④①口 |④---|
49
④口口⑥ |①---|
口③⑤② |②---|
口口①口 |③-④-|
口口口口 |⑤-⑥-|
50
口①①口 |①---|
②口口口 |--②-|
口②口口 |----|
口口口口 |----|
51
④⑥⑤口 |①---|
口口口① |②-③-|
②口①③ |--④-|
口口口口 |⑤-⑥-|
52
口口口口 |--①-|
②①①口 |----|
口②口口 |②---|
口口口口 |----|
53
④⑥⑤口 |①---|
口口口① |②-③-|
②口①③ |--④-|
口口口口 |⑤-⑥-|
54
口口口① |--①-|
口口口口 |----|
口口口口 |----|
口口口口 |----|
55
①口口口 |①---|
口①口口 |----|
口口口口 |----|
口口口口 |----|
56
口口口① |①---|
口口①口 |----|
口口口口 |----|
口口口口 |----|
57
口口口口 |①---|
①口口① |----|
口①①口
口口口口

口口口口
口口口口
口③口口 |②---|
口口②口 |③---|
58
口口口口 |①---|
①口口口 |----|
口口③口 |②---|
口②口口 |③---|
59
口口口口 |①---|
口③口① |----|
口口②口 |②---|
口口口口 |③---|
60
①口口口 |①---|
口口③口 |----|
口②口口 |②---|
口口口口 |③---|
61
口③②① |①---|
口口口口 |②---|
口口口口 |③---|
口口口口
62
①口口口 |①---|
②口口口 |②---|
③口口口 |③---|
口口口口
63
口口口口 |①---|
口口口口 |②---|
口口口口 |③---|
①②③口
64
口口口口 |①---|
口口口③ |②---|
口口口② |③---|
口口口①
65
口③②① |①---|
口口口口 |②---|
口口口口 |③---|
口口口口
66
①口口口 |①---|
②口口口 |②---|
③口口口 |③---|
口口口口
67
口口口口 |①---|
口口口口 |②---|
口口口口 |③---|
①②③口
68
口口口口 |①---|
口口口③ |②---|
口口口② |③---|
口口口①
69
口口②① |①---|
口口口口 |②---|
口口口口 |----|
口口口口
70
口①口口 |-①--|
口口口口 |----|
③口口② |②---|
口口口口 |-③--|
71
口口口口 |----|
口口①口 |①---|
口口口口 |-②--|
口口②口 |----|


不確定度: 0

最終更新:2013年03月29日 20:42