cloche
Qrispy Joybox

EXTREME

Level: 8
BPM: 182
Notes: 512

1
口口口口 |----|
口口口口 |----|
口口口口 |----|
口口口口 |----|
2
口口口口 |①---|
④口③口 |②-③-|
口②口⑤ |--④-|
口①①口 |--⑤-|
3
口③口口 |--①-|
④口口② |--②-|
①口口口 |--③-|
口口⑤口 |④-⑤-|
4
⑤口⑤② |①---|
口④③口 |②-③-|
口③④① |--④-|
②⑤口⑤ |--⑤-|
5
口口口口 |----|
口口口口 |----|
口口口口 |----|
口口口口 |----|
6
口口口口 |①---|
口口③口 |②-③-|
①②口①
口①①口

口口口口
④口口口
口口口⑤ |--④-|
口口口口 |--⑤-|
7
口④口口 |①-②-|
⑤口口③ |--③-|
②口口口 |--④-|
①口⑥① |⑤-⑥-|
8
⑤口⑤② |①---|
口④③口 |②-③-|
①③④① |--④-|
②⑤口⑤ |--⑤-|
9
口口口口 |----|
口口口口 |----|
口口口口 |----|
口口口口 |----|
10
口口口② |①-②-|
⑤口③⑥ |③-④-|
口④⑦口 |⑤-⑥-|
①⑦口① |--⑦-|
11
①④④② |--①-|
口口口口 |--②-|
②口口① |--③-|
③口口③ |--④-|
12
口口口口 |--①-|
口①②③ |②-③-|
口口口口 |④-⑤-|
⑦⑥⑤④ |⑥-⑦-|
13
②④⑥口 |--①-|
口口口口 |②-③-|
①③⑤⑦ |④-⑤-|
口口口口 |⑥-⑦-|
14
口⑥⑦② |①-②-|
⑤口③口 |③-④-|
口④⑧口 |⑤-⑥-|
①⑧口① |⑦-⑧-|
15
①④④③ |--①-|
口口口② |--②-|
③口口① |--③-|
②口口口 |--④-|
16
口口口口 |--①-|
口①②③ |②-③-|
口口口口 |④-⑤-|
⑦⑥⑤④ |⑥-⑦-|
17
口口口口 |----|
口②口① |----|
口口口口 |--①-|
口口口口 |--②-|
18
口口口口 |①-②-|
①口⑦⑦ |③-④-|
⑤⑥④④ |--⑤-|
②③口口 |⑥-⑦-|
19
④⑤③③ |--①-|
①②口口 |②-③-|
口口口口 |--④-|
口口口⑥ |⑤-⑥-|
20
④⑤口口 |--①-|
口口③③ |②-③-|
口口⑥⑥ |--④-|
①②口口 |⑤-⑥-|
21
④口口④ |----|
口②③口 |①---|
口①口口 |②-③-|
口口①口 |--④-|
22
口口口口 |--①-|
口口⑥⑥ |②-③-|
④⑤③③ |--④-|
①②口口 |⑤-⑥-|
23
④⑤③③ |--①-|
①②口⑥ |②-③-|
口口口口 |--④-|
口口口口 |⑤-⑥-|
24
口⑦口口 |--①-|
口④⑥口 |②-③-|
口⑤③口 |④-⑤-|
①②口口 |⑥-⑦-|
25
口口口口 |----|
口口口口 |----|
口口口口 |----|
口口口口 |----|
26
②口口② |①---|
⑤口④口 |②---|
口③口⑤ |③-④-|
①口口① |--⑤-|
27
口②口口 |--①-|
口⑤口① |--②-|
①口④口 |--③-|
口③②口 |④-⑤-|
28
②口口② |①---|
⑤口④口 |②---|
口③口⑤ |③-④-|
①口口① |--⑤-|
29
口①口口 |----|
口②口口 |----|
口口③口 |①-②-|
口口④口 |③-④-|
30
②口口② |①---|
⑤口④口 |②---|
口③口⑤ |③-④-|
①口口① |--⑤-|
31
口②③口 |--①-|
口④口① |--②-|
①口⑤口 |--③-|
口口②口 |④-⑤-|
32
②口口② |①---|
⑤口④口 |②---|
口③口⑤ |③-④-|
①口口① |--⑤-|
33
口口口口 |----|
口口口口 |----|
口口口口 |----|
口口口口 |----|
34
②口口口 |①-②-|
⑤③口口 |③-④-|
④⑥口口 |⑤-⑥-|
①口⑦① |--⑦-|
35
口口口口 |①-②-|
口口②④ |③-④-|
口口③①
口口口口

口口⑤口
口⑥口口
口⑦口⑨ |--⑤⑥|
口口⑧口 |⑦⑧⑨-|
36
口口⑤口 |①-②-|
口⑥口④ |③-④-|
口⑦③口 |⑤-⑥-|
①②⑧① |⑦-⑧-|
37
口口口口 |----|
口口口口 |----|
口口口口 |----|
口口口口 |----|
38
②口口口 |①-②-|
⑤③口口 |③-④-|
④⑥口口 |⑤-⑥-|
①口⑦① |--⑦-|
39
口口口口 |①-②-|
口口④③ |③-④-|
口口②①
口口口口

口口⑤口
口⑥口口
口⑦口⑨ |--⑤⑥|
口口⑧口 |⑦⑧⑨-|
40
口⑧⑤⑧ |①-②-|
口口口④ |③-④-|
⑦⑥③口 |⑤-⑥-|
①②口① |⑦-⑧-|
41
口口口口 |----|
口口口口 |----|
口口口口 |----|
口口口口 |----|
42
口③口口 |①---|
①口口口 |----|
口②口口 |②-③-|
④④口口 |--④-|
43
①口口口 |--①-|
口口口口 |----|
口口口口 |----|
口口口口 |----|
44
③口口口 |①---|
口①口口 |----|
②口口口 |②-③-|
④④口口 |--④-|
45
口①口口 |--①-|
②口口口 |②-③-|
口③口口 |----|
口口口口 |----|
46
⑥⑥口口 |①---|
口④②⑤ |②---|
①口口口 |③-④-|
口③①③ |⑤-⑥-|
47
口口口口 |①---|
口口②④ |②---|
口口口口 |③---|
口口①③ |④---|
48
⑥⑥口口 |①---|
④口②⑤ |②---|
口①口口 |③-④-|
③口①③ |⑤-⑥-|
49
口口口口 |----|
口口口口 |----|
口口口口 |----|
口口口口 |----|
50
口口口口 |----|
口口口口 |----|
口口口口 |----|
口口口口 |----|
51
口口口口 |①-②-|
①口⑦⑦ |③-④-|
⑤⑥④④ |--⑤-|
②③口口 |⑥-⑦-|
52
④⑤③③ |--①-|
①②口口 |②-③-|
口口口口 |--④-|
口口口⑥ |⑤-⑥-|
53
④⑤口口 |--①-|
口口③③ |②-③-|
口口⑥⑥ |--④-|
①②口口 |⑤-⑥-|
54
口口⑦⑥ |--①-|
③④⑤口 |②-③-|
口②口口 |④-⑤-|
口口①口 |⑥-⑦-|
55
口口口口 |--①-|
口口⑥⑥ |②-③-|
④⑤③③ |--④-|
①②口口 |⑤-⑥-|
56
④⑤③③ |--①-|
①②口⑥ |②-③-|
口口口口 |--④-|
口口口口 |⑤-⑥-|
57
口⑦口口 |--①-|
口④⑥口 |②-③-|
口⑤③口 |④-⑤-|
①②口口 |⑥-⑦-|
58
口口口① |----|
口②口口 |----|
口口口口 |--①-|
口口口口 |--②-|
59
口口口口 |①-②-|
⑧口口口 |③-④-|
⑦④⑤② |⑤-⑥-|
①⑥③① |⑦-⑧-|
60
⑥①④⑥ |①-②-|
口③②口 |③-④-|
口口口口 |--⑤-|
⑤口口⑤ |--⑥-|
61
口口口口 |--①-|
⑦口口口 |②-③-|
⑥③④① |④-⑤-|
口⑤②口 |⑥-⑦-|
62
口⑤②口 |--①-|
⑥③④① |②-③-|
口口口口 |④-⑤-|
口口口口 |⑥---|
63
口口口口 |①-②-|
⑧口口口 |③-④-|
⑦④⑤② |⑤-⑥-|
①⑥③① |⑦-⑧-|
64
⑥①④⑥ |①-②-|
口③②口 |③-④-|
口口口口 |--⑤-|
⑤口口⑤ |--⑥-|
65
口口口口 |--①-|
⑦口口口 |②-③-|
⑥③④① |④-⑤-|
口⑤②口 |⑥-⑦-|
66
口口口口 |----|
口口口口 |----|
口口口口 |----|
口口口口 |----|
67
⑤口口⑤ |①---|
②口③口 |②-③-|
④口口④ |--④-|
口①①口 |--⑤-|
68
口②口口 |--①-|
口①③① |--②-|
⑥口④口 |③-④-|
口⑤口口 |⑤-⑥-|
69
④口口④ |①---|
②口③口 |--②-|
口②口③ |--③-|
①口口① |--④-|
70
口①①口 |----|
口口口口 |----|
口口口口 |--①-|
口口口口 |----|
71
⑤口口⑤ |①---|
②口③口 |②-③-|
④口口④ |--④-|
口①①口 |--⑤-|
72
口②口口 |--①-|
口①③① |--②-|
⑥口④口 |③-④-|
口⑤口口 |⑤-⑥-|
73
口口③口 |①---|
⑥②口⑥ |②-③-|
⑤口口⑤ |--④-|
①④④① |⑤-⑥-|
74
口口口口 |----|
口口口口 |----|
口口口口 |----|
口口口口 |----|
75
⑦⑤口口 |--①-|
口口口口 |②-③-|
口②③口 |④-⑤-|
⑥④①口 |⑥-⑦-|
76
口口口② |①-②-|
④⑤⑤④ |--③-|
③口口③ |--④-|
口口口① |--⑤-|
77
⑦⑤口口 |--①-|
口口口口 |②-③-|
口②③口 |④-⑤-|
⑥④①口 |⑥-⑦-|
78
口口口口 |①-②-|
④口③口 |③-④-|
口②口① |----|
口口口口 |----|
79
⑦⑤口口 |--①-|
口口口口 |②-③-|
口②③口 |④-⑤-|
⑥④①口 |⑥-⑦-|
80
口⑤⑤② |①-②-|
④口口④ |--③-|
③口口③ |--④-|
口口口① |--⑤-|
81
①口口① |--①-|
④②②④ |②-③-|
③⑤⑤③ |④-⑤-|
⑥⑦⑦⑥ |⑥-⑦-|


不确定度: 0

最終更新:2012年11月07日 23:20