Happy
Sota Fujimori

BASIC

Level: 6
BPM: 190
Notes: 331

1
口口口口 |----|
口口口口 |----|
口口口口 |----|
口口口口 |----|
2
口口口口 |①---|
口口口口 |----|
口①①口 |----|
口口口口 |----|
3
口口①口 |①---|
口①口口 |----|
口口口口 |----|
口口口口 |----|
4
口口口口 |①---|
口口口口 |----|
①口口① |----|
口口口口 |----|
5
②口口② |①---|
口①①口 |--②-|
口口口口 |----|
口口口口 |----|
6
口口口口 |①---|
口口口口 |----|
口①①口 |----|
口口口口 |----|
7
口口①口 |①---|
口①口口 |----|
口口口口 |----|
口口口口 |----|
8
口口口口 |①---|
口口口口 |----|
口口口口 |----|
①口口① |----|
9
口口口口 |①---|
口②②口 |--②-|
口①①口 |----|
口口口口 |----|
10
①口口① |①---|
口④口口 |----|
口口③口 |--②-|
口②口口 |③-④-|
11
②③口② |①---|
口口④口 |--②-|
①⑤口① |--③-|
口口口口 |④-⑤-|
12
口口口口 |①---|
①口口① |--②-|
口口口口 |----|
口②②口 |----|
13
口②口口 |①---|
口口③口 |②-③-|
①口口① |----|
口④口口 |④---|
14
口口口口 |①---|
①口口① |--②-|
口②②口 |----|
口口口口 |----|
15
口口口④ |①---|
③口口口 |②---|
口口口② |③---|
①口口口 |④---|
16
口①①口 |①---|
口口口口 |--②-|
口②②口 |----|
口口口口 |----|
17
口口口口 |①---|
①口口② |----|
口口口口 |②---|
②口口① |----|
18
口口口③ |①---|
口②口口 |--②-|
口口口口 |----|
口①口口 |--③-|
19
口口①口 |①---|
口口口口 |--②-|
②口口口 |----|
口口③口 |③---|
20
口①①口 |①---|
②口口② |--②-|
口③③口 |----|
口口口口 |③---|
21
口口口口 |①---|
口①①口 |----|
②口口③ |②---|
口口口口 |③---|
22
口①①口 |①---|
口口口口 |--②-|
口口②口 |----|
口③口口 |③---|
23
口口口口 |①---|
口①①口 |--②-|
③口口② |----|
口口口口 |③---|
24
口①①口 |①---|
口②②口 |--②-|
口口口口 |----|
口③③口 |③---|
25
口口口口 |①---|
①口口① |----|
口口口口 |②---|
②口口② |----|
26
③口③⑤ |①-②-|
②口②口 |③---|
①口①口 |--④-|
口④口口 |--⑤-|
27
口口口口 |--①-|
⑤①口口 |--②-|
口口④口 |--③-|
③口②口 |④-⑤-|
28
口③口③ |①-②-|
口②口② |③---|
④①口① |--④-|
口口口⑤ |--⑤-|
29
口口口口 |--①-|
口⑤口② |--②-|
口①口④ |--③-|
口③口口 |④-⑤-|
30
③口③⑤ |①-②-|
②口②口 |③---|
①口①口 |--④-|
口④口口 |--⑤-|
31
口口口口 |--①-|
⑤①口口 |--②-|
口口④口 |--③-|
③口②口 |④-⑤-|
32
口③口③ |①-②-|
口②④② |③---|
口①口① |--④-|
口⑤口口 |--⑤-|
33
口口口口 |--①-|
口②口⑤ |--②-|
口④口① |--③-|
口口口③ |④-⑤-|
34
③口③⑤ |①-②-|
②口②口 |③---|
①口①口 |--④-|
口④口口 |--⑤-|
35
口口口口 |--①-|
⑤①口口 |--②-|
口口④口 |--③-|
③口②口 |④-⑤-|
36
口③口③ |①-②-|
口②④② |③---|
口①口① |--④-|
⑤口口口 |--⑤-|
37
口口口口 |--①-|
①⑤口② |--②-|
口口口④ |--③-|
口③口口 |④-⑤-|
38
③口③口 |①-②-|
②口②口 |③---|
①口①口
口口口口

口口口口
口口口口
⑤口⑤口 |--④-|
口④口口 |--⑤-|
39
②口②口 |--①-|
口①③① |--②-|
口口口口 |--③-|
④口⑤口 |④-⑤-|
40
④③④③ |①-②-|
口②口② |③---|
口①口① |--④-|
口⑤⑤口 |--⑤-|
41
口口口口 |--①-|
①口口① |--②-|
口②②口 |----|
口口口口 |----|
42
口①①口 |①---|
口口口口 |----|
口口口口 |----|
口口口口 |----|
43
口口口口 |①---|
口口口口 |----|
口①②口 |②---|
口口口口 |----|
44
口口口口 |①---|
口口口口 |----|
口口口口 |----|
①口口① |----|
45
口口口口 |①---|
口①口口 |----|
口口①口 |----|
口口口口 |----|
46
口口口口 |①---|
①口口① |----|
口口口口 |----|
口口口口 |----|
47
口口口口 |①---|
口①②口 |----|
口口口口 |②---|
口口口口 |----|
48
口口口口 |①---|
口口口口 |----|
口①①口 |----|
口口口口 |----|
49
口口口口 |①---|
①口口① |----|
口口口口 |----|
口口口口 |----|
50
口口口口 |①---|
口口口口 |----|
口口口口 |----|
口①①口 |----|
51
口口口口 |①---|
①②③④ |②---|
口口口口 |③---|
口口口口 |④---|
52
①口口② |①---|
口⑤口口 |--②-|
口口④口 |--③-|
口③口口 |④-⑤-|
53
③①①③ |①---|
口口口口 |--②-|
②口口② |----|
口口口口 |③---|
54
口口口口 |①---|
口①②口 |--②-|
口②①口 |----|
③口口③ |③---|
55
口口②口 |①---|
①②口① |----|
口口口口 |②---|
口口口口 |----|
56
口口口口 |①---|
②口口口 |--②-|
口口口口 |----|
口①①口 |----|
57
口口口口 |①---|
口口口③ |--②-|
口①①口 |----|
口②②口 |③---|
58
口①②口 |①---|
口①②口 |--②-|
③口口③ |----|
口口口口 |③---|
59
口口口口 |①---|
①口口① |----|
口口口口 |②---|
②口口② |----|
60
①口口② |①---|
口⑤口口 |--②-|
口口④口 |--③-|
口③口口 |④-⑤-|
61
③①①③ |①---|
口口口口 |--②-|
②口口② |----|
口口口口 |③---|
62
口口口口 |①---|
口①②口 |--②-|
口②①口 |----|
③口口③ |③---|
63
口口②口 |①---|
①口口① |----|
口②口口 |②---|
口口口口 |----|
64
口口口口 |①---|
②口口口 |--②-|
口口口口 |----|
口①①口 |----|
65
口口口口 |①---|
口口口③ |--②-|
口①①口 |----|
口②②口 |③---|
66
口①②口 |①---|
口①②口 |--②-|
③口口③ |----|
口口口口 |③---|
67
口口口口 |①---|
①口口① |----|
口口口口 |②---|
口②②口 |----|
68
①口口口 |①---|
口①口口 |----|
口口口口 |----|
口口口口 |----|
69
口口口① |①---|
口口①口 |----|
口口口口 |----|
口口口口 |----|
70
①口口① |①---|
②口口② |--②-|
口口口口 |----|
③口口③ |③---|
71
口口口口 |①---|
口①①口 |----|
口口口口 |----|
口口口口 |----|
72
口口口口 |①---|
口口口口 |----|
口①①口 |----|
口口口口 |----|
73
口口①口 |①---|
口①口口 |----|
口口口口 |----|
口口口口 |----|
74
口口口口 |①---|
口口口口 |----|
①口口① |----|
口口口口 |----|
75
②口口② |①---|
口①①口 |--②-|
口口口口 |----|
口口口口 |----|
76
口口口口 |①---|
口口口口 |----|
口①①口 |----|
口口口口 |----|
77
口口①口 |①---|
口①口口 |----|
口口口口 |----|
口口口口 |----|
78
口口口口 |①---|
口口口口 |----|
口口口口 |----|
①口口① |----|
79
口口口口 |①---|
口②②口 |--②-|
口①①口 |----|
口口口口 |----|


不確定度: 0

最終更新:2013年02月26日 17:07