Happy
Sota Fujimori
ADVANCED
Level: 8
BPM: 190
Notes: 478
1
口口口口 |----|
口口口口 |----|
口口口口 |----|
口口口口 |----|
2
口口口口 |①-②-|
①⑦④口 |③-④-|
⑤口⑧⑥ |⑤-⑥-|
口③口② |⑦-⑧-|
3
①③①③ |①---|
口口口口 |②-③-|
口口口口 |----|
口②②口 |----|
4
口口口口 |①-②-|
口③⑧② |③-④-|
⑤⑦口⑥ |⑤-⑥-|
①口④口 |⑦-⑧-|
5
③①③① |①---|
口口口口 |②-③-|
口口口口 |----|
口②②口 |----|
6
口口口口 |①-②-|
①⑦④口 |③-④-|
⑤口⑧⑥ |⑤-⑥-|
口③口② |⑦-⑧-|
7
①③①③ |①---|
口口口口 |②-③-|
口口口口 |----|
口②②口 |----|
8
口口口口 |①-②-|
口③⑧② |③-④-|
⑤⑦口⑥ |⑤-⑥-|
①口④口 |⑦-⑧-|
9
②口口② |①---|
口口口口 |②-③-|
口口口口 |----|
①③③① |----|
10
口①口口 |①---|
口④①口 |----|
口口③口 |--②-|
口②口口 |③-④-|
11
②③口② |①---|
口口④口 |--②-|
①口口① |--③-|
口⑤口口 |④-⑤-|
12
口口口口 |①---|
①口口① |--②-|
口②②口 |----|
口口口口 |----|
13
①①口② |①---|
③③口口 |②-③-|
口口口口 |----|
口口④口 |④---|
14
口①①口 |①---|
口口口口 |--②-|
口口口口 |----|
②口口② |----|
15
口口口口 |①---|
③口口④ |②---|
口①②口 |③---|
④②①③ |④---|
16
①口口① |①---|
口口口口 |--②-|
①口口① |----|
口②②口 |----|
17
口②口口 |①---|
口口②口 |----|
口①①口 |②---|
口口口口 |----|
18
②②口③ |①---|
口口口口 |--②-|
口口口口 |----|
①口口口 |--③-|
19
口口①口 |①---|
口口口口 |--②-|
③口②口 |----|
口口口口 |③---|
20
口口口① |①---|
口口②口 |--②-|
口口口① |----|
③③②口 |③---|
21
口口口口 |①---|
③①②口 |----|
口②口③ |②---|
口口口口 |③---|
22
口口口① |①---|
口②口口 |--②-|
口口口口 |----|
①口③口 |③---|
23
口①①口 |①---|
②口口口 |--②-|
口口口口 |----|
③口口③ |③---|
24
口②①口 |①---|
口口口口 |--②-|
口①②口 |----|
③口口③ |③---|
25
①口口① |①---|
口②②口 |----|
口口口口 |②---|
口口口口 |----|
26
口③口③ |①-②-|
⑤口⑤口 |③---|
②④②④ |--④-|
口①口① |--⑤-|
27
口口口口 |--①-|
④①⑤① |--②-|
口口③口 |--③-|
口②口② |④-⑤-|
28
③口③口 |①-②-|
口口口口 |③---|
口②口②
①口①口
口口口口
口口口口
④口④口 |--④-|
⑤口⑤口 |--⑤-|
29
口②口② |--①-|
①④①⑤ |--②-|
口口口③ |--③-|
口口口口 |④-⑤-|
30
口③口③ |①-②-|
⑤口⑤口 |③---|
②④②④ |--④-|
口①口① |--⑤-|
31
口口口口 |--①-|
④①⑤① |--②-|
口口③口 |--③-|
口②口② |④-⑤-|
32
③口③口 |①-②-|
口⑤口⑤ |③---|
④②④② |--④-|
①口①口 |--⑤-|
33
口口口口 |--①-|
①⑤①口 |--②-|
口③口④ |--③-|
②口②口 |④-⑤-|
34
口③③③ |①-②-|
⑤口⑤口 |③---|
②④②④ |--④-|
口①口① |--⑤-|
35
口口口口 |--①-|
④①⑤① |--②-|
口口③口 |--③-|
口②口② |④-⑤-|
36
③口③口 |①-②-|
口口口口 |③---|
口②口②
①口①口
口口口口
口口口口
④口④口 |--④-|
⑤口⑤口 |--⑤-|
37
口②口② |--①-|
①④①⑤ |--②-|
口口口③ |--③-|
口口口口 |④-⑤-|
38
①口①口 |①-②-|
④口④口 |③-④-|
③⑥③⑥ |--⑤-|
⑤②⑤② |--⑥-|
39
③口口③ |--①-|
口②②⑥ |②-③-|
①口①⑤ |--④-|
口④口口 |⑤-⑥-|
40
④口口④ |①-②-|
②口②⑤ |③---|
③口③口 |--④-|
①⑤①口 |--⑤-|
41
口口口口 |--①-|
①②②口 |--②-|
口口口口 |----|
口口①口 |----|
42
①口口① |①---|
口口口口 |----|
口口口口 |----|
口口口口 |----|
43
口口口口 |①---|
口①②口 |----|
口②①口 |②---|
口口口口 |----|
44
口口口口 |①---|
口口口口 |----|
口口口口 |----|
口①①口 |----|
45
口口口口 |①---|
口口口口 |----|
①口口① |----|
口口口口 |----|
46
①口口① |①---|
口口口口 |----|
口口口口 |----|
口口口口 |----|
47
口口口口 |①---|
口②①口 |----|
口①②口 |②---|
口口口口 |----|
48
口口口口 |①---|
口口口口 |----|
口口口口 |----|
①口口① |----|
49
口口口口 |①---|
①口口① |----|
口①①口 |----|
口口口口 |----|
50
口口口口 |①---|
②④②④ |②---|
口口口口 |③---|
口③①口 |④---|
51
①②③④ |①-②-|
口口口口 |③-④-|
⑤⑥⑦⑧ |⑤-⑥-|
口口口口 |⑦-⑧-|
52
①口④② |①---|
口③口口 |--②-|
口⑤口口 |--③-|
②口口① |④-⑤-|
53
口口口口 |①---|
①⑤口① |②-③-|
口口④口 |--④-|
③口口② |⑤---|
54
①口口① |①---|
②口口④ |②-③-|
口口口口 |--④-|
⑤口口③ |⑤---|
55
②口口口 |①---|
口口①口 |----|
口①口口 |②---|
口口口② |----|
56
口①口口 |①---|
③口口② |--②-|
口①口口 |----|
口口口口 |--③-|
57
③口①③ |①---|
口口口口 |--②-|
口口①口 |----|
口②口口 |③---|
58
口口口口 |①---|
②口口口 |--②-|
口②③① |----|
口③①口 |③---|
59
①口口① |①---|
口口口口 |----|
口口口口 |②---|
②口口② |----|
60
①⑤口② |①---|
口口口口 |--②-|
②口④① |--③-|
口③口口 |④-⑤-|
61
口口口口 |①---|
①⑤④① |②-③-|
口口口口 |--④-|
③口口② |⑤---|
62
①口口① |①---|
③口口⑤ |②-③-|
口口口口 |--④-|
④口口② |⑤---|
63
②口口口 |①---|
口口①口 |----|
口①口口 |②---|
口口口② |----|
64
口①口口 |①---|
③口口② |--②-|
口①口口 |----|
口口口口 |--③-|
65
④口①③ |①---|
口口口口 |--②-|
口口①口 |--③-|
口②口口 |④---|
66
口口口口 |①---|
②口口口 |--②-|
口②口① |----|
③口①③ |③---|
67
①口口① |①---|
口口口口 |----|
口口口口 |②---|
口②②口 |----|
68
口口④② |①---|
③口口口 |②-③-|
①口④② |----|
口口口口 |④---|
69
口口⑤② |①---|
③口口口 |②-③-|
①口⑤② |--④-|
口④口口 |⑤---|
70
②口口② |①---|
口①①口 |--②-|
口口口口 |----|
③口口③ |③---|
71
口口口口 |①---|
①口口① |----|
口②③口 |--②-|
口①①口 |③---|
72
口口口口 |①-②-|
①⑦④口 |③-④-|
⑤口⑧⑥ |⑤-⑥-|
口③口② |⑦-⑧-|
73
①③①③ |①---|
口口口口 |②-③-|
口口口口 |----|
口②②口 |----|
74
口口口口 |①-②-|
口③⑧② |③-④-|
⑤⑦口⑥ |⑤-⑥-|
①口④口 |⑦-⑧-|
75
③①③① |①---|
口口口口 |②-③-|
口口口口 |----|
口②②口 |----|
76
口口口口 |①-②-|
①⑦④口 |③-④-|
⑤口⑧⑥ |⑤-⑥-|
口③口② |⑦-⑧-|
77
①③①③ |①---|
口口口口 |②-③-|
口口口口 |----|
口②②口 |----|
78
口口口口 |①-②-|
口③⑧② |③-④-|
⑤⑦口⑥ |⑤-⑥-|
①口④口 |⑦-⑧-|
79
②口口② |①---|
口口口口 |②-③-|
④口口⑤ |--④-|
①③③① |⑤---|
不確定度: 0