Just Awake
Fear,and Loathing in Las Vegas

BASIC

Level: 3
BPM: 191
Notes: 238

1
口口口口 |----|
口口口口 |----|
口口口口 |----|
口口口口 |----|
2
口口③口 |①---|
①②口口 |----|
口口口口 |②---|
口口口口 |--③-|
3
口口口口 |----|
口口口① |----|
口口口口 |①---|
口口口口 |----|
4
口口口口 |①---|
口口③口 |----|
①②口口 |②---|
口口口口 |--③-|
5
口口口口 |----|
口口口口 |----|
口口口① |①---|
口口口口 |----|
6
口①①口 |①---|
口②②口 |----|
口口口口 |②---|
口口口口 |----|
7
口口口口 |①---|
口口口口 |----|
口①①口 |②---|
②口口② |----|
8
口口口口 |①---|
①口口① |----|
口口口口 |----|
口口口口 |----|
9
口口口口 |----|
口口口口 |----|
口口口口 |----|
口口口口 |----|
10
①口口口 |①---|
口②口口 |----|
口口口口 |②---|
口口口口 |----|
11
口口①口 |①---|
口口口② |----|
口口口口 |②---|
口口口口 |----|
12
口口口口 |①---|
口口口口 |----|
口口口① |②---|
口口②口 |----|
13
口口口口 |①---|
口口口口 |----|
口①口口 |②---|
②口口口 |----|
14
口口口口 |①---|
口②口口 |----|
①口口口 |②---|
口口口口 |----|
15
口口口口 |①---|
口口口② |----|
口口①口 |②---|
口口口口 |----|
16
口口口口 |①---|
口口②口 |----|
口口口① |②---|
口口口口 |----|
17
口口口口 |①---|
②口口口 |----|
口①口口 |②---|
口口口口 |----|
18
口口口口 |①---|
口口口口 |----|
口①①口 |----|
口口口口 |----|
19
口口口口 |①---|
口①①口 |----|
口口口口 |----|
口口口口 |----|
20
口①②口 |①---|
口口口口 |----|
口口口口 |②---|
口口口口 |----|
21
口口口口 |①---|
口①①口 |----|
口②②口 |②---|
口口口口 |----|
22
①口口① |①---|
②口口② |----|
口口口口 |②---|
口口口口 |----|
23
①口口① |①---|
②口口② |----|
口口口口 |②---|
口口口口 |----|
24
口②口口 |①---|
口口口口 |----|
口①①口 |----|
口口口口 |②---|
25
口口①口 |①---|
②口口② |----|
口口口口 |②---|
口口口口 |----|
26
①口口① |①---|
口②②口 |----|
口口口口 |②---|
口口口口 |----|
27
②①①② |①---|
口口口口 |----|
口口口口 |②---|
口口口口 |----|
28
口口口口 |①---|
①口口① |----|
口口口口 |②---|
口②②口 |----|
29
口口口口 |①---|
②口口② |----|
口①①口 |②---|
口口口口 |----|
30
口①②口 |①---|
口口口口 |----|
口口口口 |②---|
口口口口 |----|
31
口口口口 |①---|
口②①口 |----|
口口口口 |②---|
口口口口 |----|
32
口口口口 |①---|
口口口口 |----|
口①②口 |②---|
口口口口 |----|
33
口口口口 |①---|
口口口口 |----|
口口口口 |②---|
口②①口 |----|
34
①口口② |①---|
口口口口 |----|
口口口口 |②---|
口口口口 |----|
35
口口口口 |①---|
①口口② |----|
口口口口 |②---|
口口口口 |----|
36
口口口口 |①---|
口口口口 |----|
口②②口 |②---|
口①①口 |----|
37
②口口③ |①---|
口①①口 |②---|
口口口口 |----|
口口口口 |--③-|
38
口口口口 |----|
口①口口 |----|
口口口口 |----|
口口口口 |①---|
39
口口口口 |①---|
②口①③ |----|
口口口口 |②---|
口口口口 |--③-|
40
口口口口 |----|
口口口口 |----|
口①口口 |----|
口口口口 |①---|
41
口口口口 |①---|
口口口口 |----|
口口①口 |②---|
口②②口 |----|
42
口口口口 |①---|
①②③④ |②---|
口口口口 |③---|
口口口口 |④---|
43
口口口口 |①---|
口口口口 |②---|
④③②① |③---|
口口口口 |④---|
44
口①①口 |①---|
口口口口 |----|
口口口口 |----|
口②②口 |--②-|
45
口口口口 |----|
口②②口 |--①-|
口①①口 |----|
口口口口 |--②-|
46
口口口口 |----|
口口口口 |----|
①口口① |----|
口口口口 |①---|
47
①③③① |①---|
口口口口 |----|
口口口口 |②---|
口②②口 |--③-|
48
口口口口 |----|
口口口口 |----|
口口口口 |----|
口①①口 |①---|
49
②口口② |①---|
口口口口 |----|
口①①口 |②---|
口口口口 |----|
50
口口口口 |①---|
①口口② |----|
口口口口 |②---|
口口口口 |----|
51
口口口口 |①---|
口口口口 |----|
①口口② |②---|
口口口口 |----|
52
口①①口 |①---|
口②②口 |--②-|
口③③口 |----|
口口口口 |③---|
53
口口口口 |--①-|
②口口③ |----|
口口口口 |②---|
口①①口 |③---|
54
口①口口 |①---|
口口口口 |----|
口口口口 |----|
口口口口 |----|
55
口口①口 |①---|
口口口口 |----|
口口口口 |----|
口口口口 |----|
56
口口口口 |①---|
口①口口 |----|
口口口口 |----|
口口口口 |----|
57
口口口口 |①---|
口口①口 |----|
口口口口 |----|
口口口口 |----|
58
口口口口 |①---|
口口口口 |----|
口①口口 |----|
口口口口 |----|
59
口口口口 |①---|
口口口口 |----|
口口①口 |----|
口口口口 |----|
60
口口口口 |①---|
口口口口 |----|
口口口口 |----|
口①①口 |----|
61
口口口口 |----|
口口口口 |----|
口口口口 |----|
口口口口 |----|
62
口①②口 |①---|
口③④口 |②---|
口口口口 |③---|
口口口口 |④---|
63
口口口口 |①---|
口口口口 |②---|
口①②口 |③---|
口③④口 |④---|
64
口①②口 |①---|
口③④口 |②---|
口口口口 |③---|
口口口口 |④---|
65
口口口口 |①---|
口口口口 |②---|
口①②口 |③---|
口③④口 |④---|
66
口①②口 |①---|
口③④口 |②---|
口口口口 |③---|
口口口口 |④---|
67
口口口口 |①---|
口口口口 |②---|
口①②口 |③---|
口③④口 |④---|
68
口①②口 |①---|
口③④口 |②---|
口口口口 |③---|
口口口口 |④---|
69
口口口口 |①---|
口口口口 |②---|
口①②口 |③---|
口③④口 |④---|
70
①口口② |①---|
口口口口 |----|
口口口口 |②---|
口口口口 |----|
71
口②②口 |①---|
口①①口 |----|
口口口口 |②---|
口口口口 |----|
72
口口口口 |①---|
①口口② |----|
口口口口 |②---|
口口口口 |----|
73
口口口口 |①---|
口②②口 |----|
口①①口 |②---|
口口口口 |----|
74
①口口① |①---|
②口口② |--②-|
③口口③ |----|
口口口口 |③---|
75
口口口口 |--①-|
口口口口 |----|
口②③口 |②---|
①口口① |③---|
76
口①①口 |①---|
口②②口 |----|
口口口口 |----|
口口口口 |②---|
77
口口口口 |----|
①口口① |①---|
②口口② |②---|
③口口③ |③---|
78
口①②口 |①---|
口口口口 |----|
口口口口 |②---|
口口口口 |----|
79
口口口口 |①---|
①口口② |----|
口口口口 |②---|
口口口口 |----|
80
口口口口 |①---|
口口口口 |----|
口①②口 |②---|
口口口口 |----|
81
口口口口 |①---|
口口口口 |----|
口口口口 |②---|
①口口② |----|
82
口①②口 |①---|
口口口口 |----|
口口口口 |②---|
口口口口 |----|
83
口口口口 |①---|
①口口② |----|
口口口口 |②---|
口口口口 |----|
84
口口口口 |①---|
口口口口 |----|
口①②口 |②---|
口口口口 |----|
85
口口口口 |①---|
口口口口 |----|
口口口口 |②---|
①口口② |----|
86
口口口口 |①---|
口①①口 |----|
口①①口 |----|
口口口口 |----|

不確定度: 0

最終更新:2014年08月01日 00:30