Just Awake
Fear,and Loathing in Las Vegas

ADVANCED

Level: 7
BPM: 191
Notes: 543

1
口口口口 |----|
口口口口 |----|
口口口口 |----|
口口口口 |----|
2
口⑤口口 |①-②-|
口①②③ |③---|
口④口口 |④-⑤-|
口口⑥口 |--⑥-|
3
口口①口 |--①-|
④③②口 |--②-|
口口口口 |③-④-|
口口口口 |----|
4
口口口口 |①-②-|
口⑤口口 |③---|
口①②③ |④-⑤-|
口④⑥口 |--⑥-|
5
口口①口 |--①-|
口口口口 |--②-|
④③②口 |③-④-|
口口口⑤ |--⑤-|
6
③口口① |①---|
口口口口 |②---|
口口口口 |③---|
②④④口 |④---|
7
口①①口 |①---|
③③③③ |----|
②②②② |②---|
口口口口 |③---|
8
①①①① |①---|
口口口口 |----|
口口口口 |----|
口口口口 |----|
9
口①口口 |----|
③口口口 |----|
口口②口 |--①-|
口口口口 |②-③-|
10
口④④口 |①---|
口口⑤① |②---|
③口口口 |③---|
口②②口 |④--⑤|
11
⑥口口⑤ |①-②-|
②口口① |③-④-|
⑧④③⑦ |⑤-⑥-|
口口口口 |⑦-⑧-|
12
口④②口 |①---|
口⑤口口 |②---|
口口口口 |③---|
口③①口 |④-⑤-|
13
③⑤⑥④ |--①-|
口口口口 |②-③-|
①口口② |④-⑤-|
口口口口 |⑥---|
14
口④④口 |①---|
口口⑤① |②---|
③口口口 |③---|
口②②口 |④--⑤|
15
⑥口口⑤ |①-②-|
②口口① |③-④-|
⑧④③⑦ |⑤-⑥-|
口口口口 |⑦-⑧-|
16
口口⑤④ |--①-|
口口①③ |②-③-|
口口②⑥ |④-⑤-|
口口口口 |--⑥-|
17
⑦口口口 |--①-|
③①口④ |②-③-|
⑤②口口 |④-⑤-|
口口口⑥ |⑥-⑦-|
18
口③③口 |①---|
口②口口 |--②-|
口②口口 |--③-|
口①①口 |----|
19
⑦⑧口口 |①-②-|
口⑥②① |③-④-|
口口⑤① |⑤-⑥-|
口口③④ |⑦-⑧-|
20
④口口口 |①---|
③口口① |--②-|
②口口① |--③-|
口口口口 |--④-|
21
口⑧⑧① |①-②-|
口②口③ |③-④-|
口④口⑤ |⑤-⑥-|
口⑥口⑦ |⑦-⑧-|
22
口口口口 |----|
③口口② |----|
③口口② |①---|
口①①③ |②-③-|
23
②③③① |--①-|
口②①口 |--②-|
口口口口 |--③-|
口④④口 |--④-|
24
口口口口 |--①-|
口口口口 |②---|
②口口① |----|
③口口③ |③---|
25
①④④① |①---|
口口②口 |----|
口口口口 |②-③-|
口口③口 |--④-|
26
口口口口 |----|
①口口① |①---|
②口口② |②---|
口③③口 |③---|
27
②①①② |①---|
③口口④ |②---|
口口口口 |③-④-|
口⑤⑤口 |--⑤-|
28
②口口② |----|
口口口口 |①---|
口口口口 |②---|
①③③① |③---|
29
口①①口 |①---|
口口口② |--②-|
口口口②
口口口口

口④④口
③④④口
③④④口 |③---|
口口口口 |--④-|
30
口口口口 |----|
口口口口 |----|
②②②② |--①-|
①①①① |--②-|
31
口口口口 |--①-|
①①①① |----|
②②②② |----|
口口口口 |--②-|
32
①①①① |----|
②③口④ |①---|
口口口口 |②-③-|
②③口④ |--④-|
33
③③③③ |①---|
口口①口 |--②-|
②②②② |--③-|
口口①口 |----|
34
口口口口 |①---|
②口口③ |--②-|
②口口③ |③---|
①①①① |----|
35
口口口口 |----|
口口口口 |----|
口口口口 |----|
口口口口 |----|
36
口口口口 |----|
③③③③ |①---|
②②②② |②---|
①①①① |③---|
37
①①①① |①---|
⑥口口⑤ |②-③-|
口③口口 |④---|
②口④口 |⑤-⑥-|
38
口口口口 |----|
口口口口 |----|
口口口口 |----|
①口口① |①---|
39
①口口① |①---|
②②②② |----|
③③③③ |②---|
口口口口 |--③-|
40
口口口口 |----|
口口口口 |----|
①口口口 |----|
口口②口 |①-②-|
41
口③③口 |①---|
口口口① |②---|
口②②口 |③---|
④口口口 |--④-|
42
口口口口 |①-②-|
①③⑤⑦ |③-④-|
口⑧⑧口 |⑤-⑥-|
口②④⑥ |⑦-⑧-|
43
②④④① |--①-|
口口口口 |②---|
口口口口 |③---|
口③③口 |④---|
44
⑦口口口 |①-②-|
口⑤③① |③-④-|
口⑥④② |⑤-⑥-|
口口口口 |--⑦-|
45
④口①④ |--①-|
口④④② |--②-|
①口口口 |--③-|
口②口③ |--④-|
46
口口口口 |----|
口口口口 |----|
①①①① |----|
口口口口 |①---|
47
③③③③ |①---|
①①①① |----|
口口口口 |②---|
②②②② |--③-|
48
口口口口 |----|
口口口口 |----|
口口口口 |----|
口口①① |①---|
49
口口①① |①---|
②口口口 |----|
②口口口 |②---|
口口口口 |----|
50
口口口口 |①-②-|
口①②③ |③---|
⑦口口⑥ |④-⑤-|
⑤口口④ |⑥-⑦-|
51
口口②① |--①-|
口④④口 |②---|
口口口口 |③---|
口③③口 |④---|
52
②口口② |①---|
口口口口 |--②-|
①口口① |----|
③口口③ |③---|
53
口②②口 |--①-|
①口口① |----|
口③③口 |②---|
口口口口 |③---|
54
口⑥口⑤ |①-②-|
口②口① |③-④-|
口⑧口⑦ |⑤-⑥-|
口④口③ |⑦-⑧-|
55
②口①口 |①-②-|
⑥口⑤口 |③-④-|
④口③口 |⑤-⑥-|
⑧口⑦口 |⑦-⑧-|
56
口⑥口⑤ |①-②-|
口②口① |③-④-|
口⑧口⑦ |⑤-⑥-|
口④口③ |⑦-⑧-|
57
②口①口 |①-②-|
⑥口⑤口 |③-④-|
④口③口 |⑤-⑥-|
⑧口⑦口 |⑦-⑧-|
58
口⑥口⑤ |①-②-|
口②口① |③-④-|
口⑧口⑦ |⑤-⑥-|
口④口③ |⑦-⑧-|
59
②口①口 |①-②-|
⑥口口⑥ |③-④-|
④口③口 |⑤---|
口⑤⑤口 |⑥---|
60
①口口① |①---|
口口口口 |----|
口口口口 |----|
口口口口 |----|
61
口口口口 |----|
口口口口 |----|
口口口口 |----|
口口口口 |----|
62
口口口口 |①---|
①②③口 |②---|
口口口口 |③---|
口口口口 |----|
63
口口口口 |①---|
口口口口 |②---|
④③②① |③---|
口口口口 |④---|
64
③口口② |①---|
口口口口 |②-③-|
口④④口 |④---|
口①①口 |----|
65
口口口口 |①---|
①①①① |----|
口口口口 |----|
口口口口 |----|
66
口口口② |----|
口口口口 |①---|
③口口① |②---|
口口口口 |③---|
67
①口口口 |①---|
口③②口 |②-③-|
口口口口 |----|
口口口口 |----|
68
②口口① |--①-|
口⑥口口 |②-③-|
④口⑤③ |④---|
口口口口 |⑤-⑥-|
69
口口①口 |①---|
口口口口 |----|
口口口口 |----|
口口口口 |----|
70
口口②② |①-②-|
口口口① |--③-|
④④⑥⑥ |④---|
③口口⑤ |⑤-⑥-|
71
②②口口 |--①-|
①③④口 |②---|
口口口口 |③---|
口③④口 |④---|
72
口口②② |①-②-|
口口口① |--③-|
④④⑥⑥ |④---|
③口口⑤ |⑤-⑥-|
73
口口②② |--①-|
①口③③ |--②-|
口口口口 |③---|
④④口口 |④---|
74
①①口口 |①---|
②②②② |--②-|
③③③③ |----|
口口口口 |③---|
75
②口口③ |--①-|
口口口口 |----|
口口口口 |②---|
①①①① |③---|
76
口口口口 |①---|
②口口③ |----|
②口口③ |----|
口①①口 |②-③-|
77
口①口口 |--①-|
口③②口 |②-③-|
口⑤④口 |④-⑤-|
口口⑥口 |⑥---|
78
口①①口 |①---|
③口口② |②-③-|
④口口口 |④---|
口⑤⑤口 |⑤---|
79
④口口③ |--①-|
口②②口 |--②-|
口①①口 |--③-|
口口口口 |④---|
80
口①①口 |①---|
③口口② |②-③-|
④口口口 |④---|
口⑤⑤口 |⑤---|
81
①口口① |①---|
口③②口 |②-③-|
口口口口 |--④-|
④口口④ |----|
82
口①①口 |①---|
③口口② |②-③-|
④口口口 |④---|
口⑤⑤口 |⑤---|
83
④口口③ |--①-|
口②②口 |--②-|
口①①口 |--③-|
口口口口 |④---|
84
口①①口 |①---|
③口口② |②-③-|
④口口口 |④---|
口⑤⑤口 |⑤---|
85
口①①口 |①---|
②⑥⑤② |②-③-|
口③③口 |--④-|
口口口④ |⑤-⑥-|
86
口口口① |①---|
口口口口 |----|
口口口① |----|
口口口口 |----|

不確定度: 0

最終更新:2014年08月01日 00:30