spring pony
S-C-U

BASIC

Level: 5
BPM: 150
Notes: 262

1
口口口口 |----|
口口口口 |----|
口口口口 |----|
口口口口 |----|
2
口口口口 |①---|
口①口口 |----|
口口口口 |----|
口口口口 |----|
3
口口口口 |①---|
口口口口 |----|
口口①口 |----|
口口口口 |----|
4
口口口口 |①---|
口口②口 |----|
口①口口 |②---|
口口口口 |----|
5
④口口口 |①---|
口③口口 |②---|
口口②口 |③---|
口口口① |④---|
6
口口口口 |--①-|
③口口口 |-②--|
⑤口口② |③--④|
④口口① |--⑤-|
7
口口口③ |--①-|
口②口⑤ |-②--|
口①口④ |③--④|
口口口口 |--⑤-|
8
①口②口 |①--②|
③口④口 |--③-|
⑤口⑥口 |-④--|
口口口口 |⑤-⑥-|
9
口⑤口口 |①--②|
口③口④ |--③-|
口①口② |④---|
口口口口 |⑤---|
10
口口口口 |--①-|
口口口③ |-②--|
②口口⑤ |③--④|
①口口④ |--⑤-|
11
③口口口 |--①-|
⑤口②口 |-②--|
④口①口 |③--④|
口口口口 |--⑤-|
12
口②口① |①--②|
口④口③ |--③-|
口⑥口⑤ |-④--|
口口口口 |⑤-⑥-|
13
口口⑤口 |①--②|
④口③口 |--③-|
②口①口 |④---|
口口口口 |⑤---|
14
口口口① |①---|
口口口② |②---|
口口口③ |③---|
口口口④ |④---|
15
口口口口 |①---|
口口口口 |②---|
④口口口 |③---|
③②①口 |④---|
16
③口口口 |①---|
①口口口 |--②-|
口口②口 |--③-|
口口口口 |----|
17
口口口口 |①---|
口口①口 |----|
口口口口 |----|
②口口口 |②---|
18
口口口口 |①---|
口口口口 |②---|
口口口口 |③---|
④③②① |④---|
19
口口口③ |①---|
口④④② |②---|
口口口① |③---|
口口口口 |④---|
20
①口口口 |①---|
②口口口 |②---|
③口口口 |③---|
④口口口 |④---|
21
口口口口 |①---|
口口口口 |②---|
口口口④ |③---|
口①②③ |④---|
22
口口口③ |①---|
口口口① |--②-|
口②口口 |--③-|
口口口口 |----|
23
口口口口 |①---|
口①口口 |----|
口口口口 |----|
口口口② |②---|
24
口口口口 |①---|
口口口口 |②---|
口口口口 |③---|
①②③④ |④---|
25
③口口口 |①---|
②口口口 |②---|
①④④口 |③---|
口口口口 |④---|
26
②②①① |--①-|
口口口口 |----|
口口口口 |②---|
口口口口 |----|
27
口口口口 |①---|
口口口口 |---②|
口①①口 |----|
口②②口 |----|
28
①①②② |①---|
口口口口 |--②-|
口口口口 |----|
口口口口 |----|
29
口口口口 |①---|
口口口口 |---②|
口①①口 |----|
口②②口 |----|
30
口口口口 |①---|
口口③口 |②---|
口②口口 |③---|
①口口口 |----|
31
口口口口 |①---|
口③口口 |②---|
口口②口 |③---|
口口口① |----|
32
口口口口 |①---|
口口口口 |--②-|
①口口① |----|
②口口② |----|
33
口口口口 |----|
口口口口 |----|
口口口口 |----|
口口口口 |----|
34
①口口② |--①-|
①口口② |----|
口口口口 |②---|
口口口口 |----|
35
口口口口 |①---|
口口口口 |---②|
口①①口 |----|
口②②口 |----|
36
②口口① |①---|
②口口① |--②-|
口口口口 |----|
口口口口 |----|
37
口口口口 |①---|
口口口口 |---②|
口①①口 |----|
口②②口 |----|
38
口口②口 |①---|
口口口口 |---②|
①口口口 |----|
口口口口 |----|
39
口②口口 |①---|
口口口口 |---②|
口口口① |----|
口口口口 |----|
40
②④⑤② |①--②|
口⑥⑥口 |---③|
①口口① |---④|
③口口③ |⑤-⑥-|
41
口口口口 |----|
口口口口 |----|
口口口口 |----|
口口口口 |----|
42
口口④② |①---|
口口口口 |②---|
口口③① |③---|
口口口口 |④---|
43
②④口口 |①---|
口口口口 |②---|
①③口口 |③---|
口口口口 |④---|
44
口口口口 |①---|
口口口口 |②---|
④③②① |③---|
口口口口 |④---|
45
口口口口 |①---|
①②③④ |②---|
口口口口 |③---|
口口口口 |④---|
46
②④口口 |①---|
口口口口 |②---|
①③口口 |③---|
口口口口 |④---|
47
口口④② |①---|
口口口口 |②---|
口口③① |③---|
口口口口 |④---|
48
口口口口 |①---|
口口口口 |②---|
①②③④ |③---|
口口口口 |④---|
49
口口口口 |①---|
④③②① |②---|
口口口口 |③---|
口口口口 |④---|
50
①①口口 |①---|
口口④口 |②---|
口口③口 |③---|
口口②口 |④---|
51
口口①口 |①---|
④口口口 |②---|
③口口口 |③---|
②口口口 |④---|
52
口口①① |①---|
口④口口 |②---|
口③口口 |③---|
口②口口 |④---|
53
口①口口 |①---|
口口口④ |②---|
口口口③ |③---|
口口口② |④---|
54
①①口口 |①---|
口口④口 |②---|
口口③口 |③---|
口口②口 |④---|
55
口口①① |①---|
口④口口 |②---|
口③口口 |③---|
口②口口 |④---|
56
①①②② |①---|
口口口口 |--②-|
口口口口
口口口口

③口口口
③口口口
口口口口 |----|
口口口口 |③---|
57
口口口① |--①-|
口②②① |----|
口③③口 |②---|
口口口口 |③---|
58
口口口口 |①---|
口口口口 |----|
口口口口 |----|
①口口① |----|
59
口口口口 |----|
口口口口 |----|
口口口口
口口口口
60
④口口口 |①---|
口③口口 |②---|
口口②口 |③---|
口口口① |④---|
61
口口口④ |①---|
口口③口 |②---|
口②口口 |③---|
①口口口 |④---|
62
口口口口 |①---|
②口口① |--②-|
口口口口
口口口口

口口口口
口口口③
口口口口 |----|
口口口口 |③---|
63
口口口口 |①---|
口④③口 |②---|
口②①口 |③---|
口口口口 |④---|
64
④口口口 |①---|
口③口口 |②---|
口口②口 |③---|
口口口① |④---|
65
口口口④ |①---|
口口③口 |②---|
口②口口 |③---|
①口口口 |④---|
66
口口口口 |①---|
①口口② |--②-|
口口口口
口口口口

口口口口
③口口口
口口口口 |----|
口口口口 |③---|
67
口口口口 |①---|
口口口口 |②---|
口③④口 |③---|
口①②口 |④---|
68
⑤①①⑤ |①---|
口口口口 |--②-|
口③④口 |---③|
②口口② |④-⑤-|


不确定度: 0

最終更新:2013年01月12日 23:10