spring pony
S-C-U

ADVANCED

Level: 7
BPM: 150
Notes: 464

1
口口口口 |----|
口口口口 |----|
口口口口 |----|
口口口口 |----|
2
口①①口 |①---|
口口口口 |----|
口口口口 |----|
口口口口 |----|
3
口口口口 |①---|
口口口口 |----|
口口口口 |----|
①口口① |----|
4
口口口口 |①---|
口①①口 |----|
口②②口 |②---|
口口口口 |----|
5
口⑦③口 |①-②-|
⑧②⑥④ |③-④-|
①口口⑤ |⑤-⑥-|
口口口口 |⑦-⑧-|
6
口口口口 |--①-|
口口③③ |-②--|
②口⑤⑤ |③--④|
①口④④ |--⑤-|
7
③③口① |--①-|
⑤⑤口② |-②--|
④④口口 |③--④|
口口口口 |--⑤-|
8
口口口① |①--②|
口口②口 |--③-|
⑥口口③ |-④--|
⑤口④口 |⑤-⑥-|
9
③⑦④② |①--②|
①⑤⑥口 |--③-|
口口口口 |④-⑤-|
口口口口 |⑥-⑦-|
10
口口口口 |--①-|
③③口口 |-②--|
⑤⑤口② |③--④|
④④口① |--⑤-|
11
①口③③ |--①-|
②口⑤⑤ |-②--|
口口④④ |③--④|
口口口口 |--⑤-|
12
①口口口 |①--②|
口②口口 |--③-|
③口口⑥ |-④--|
口④口⑤ |⑤-⑥-|
13
②④⑦③ |①--②|
口⑥⑤① |--③-|
口口口口 |④-⑤-|
口口口口 |⑥-⑦-|
14
⑤口口⑧ |①-②-|
口⑥⑦口 |③-④-|
口②③口 |⑤-⑥-|
①口口④ |⑦-⑧-|
15
口①⑧口 |①-②-|
②口口⑦ |③-④-|
③口口⑥ |⑤-⑥-|
口④⑤口 |⑦-⑧-|
16
口口口口 |①---|
口①①口 |--②-|
口③③口 |--③-|
②口口② |----|
17
①口口① |①---|
④口口口 |----|
③口口口 |--②-|
②口口口 |③-④-|
18
口口②① |①-②-|
口口③④ |③-④-|
口口⑥⑤ |⑤-⑥-|
口口⑦⑧ |⑦-⑧-|
19
②①口⑧ |①-②-|
③④⑦口 |③-④-|
口⑥口⑤ |⑤-⑥-|
口口口口 |⑦-⑧-|
20
口⑧①口 |①-②-|
⑦口口② |③-④-|
⑥口口③ |⑤-⑥-|
口⑤④口 |⑦-⑧-|
21
④口口① |①-②-|
口③②口 |③-④-|
口⑦⑥口 |⑤-⑥-|
⑧口口⑤ |⑦-⑧-|
22
②口口② |①---|
口①①口 |--②-|
口③③口 |--③-|
口口口口 |----|
23
口口口④ |①---|
口口口③ |----|
口口口② |--②-|
①口口① |③-④-|
24
①②口口 |①-②-|
④③口口 |③-④-|
⑤⑥口口 |⑤-⑥-|
⑧⑦口口 |⑦-⑧-|
25
⑧口①② |①-②-|
口⑦④③ |③-④-|
⑤口⑥口 |⑤-⑥-|
口口口口 |⑦-⑧-|
26
口②①口 |--①-|
②③③① |----|
口口口口 |②---|
口口口口 |--③-|
27
口口口口 |①---|
口口口口 |---②|
口①①口 |----|
口②②口 |----|
28
②口口① |①---|
③②①③ |--②-|
口口口口 |----|
口口口口 |③---|
29
口口口口 |①---|
口口口口 |---②|
①口口① |----|
②口口② |----|
30
口口⑥口 |①-②-|
口③口⑤ |③-④-|
②口④口 |⑤-⑥-|
口①口口 |----|
31
口⑥⑦口 |①-②-|
⑤口③⑧ |③-④-|
口④口② |⑤-⑥-|
口口①口 |⑦-⑧-|
32
口口口口 |①--②|
口①①口 |--③-|
口②②口 |----|
③口口③ |----|
33
口口口口 |----|
口口口口 |----|
口口口口 |----|
口口口口 |----|
34
口②①口 |--①-|
②③③① |----|
口口口口 |②---|
口口口口 |--③-|
35
口口口口 |①---|
口口口口 |---②|
口①①口 |----|
口②②口 |----|
36
②口口① |①---|
③②①③ |--②-|
口口口口 |----|
口口口口 |③---|
37
口口口口 |①---|
口口口口 |---②|
口①①口 |----|
②口口② |----|
38
口①口② |①---|
①口②口 |---②|
口口口口 |----|
口口口口 |----|
39
②口①口 |①---|
口②口① |---②|
口口口口 |----|
口口口口 |----|
40
④口口④ |①②-③|
⑤③③⑤ |-④-⑤|
口①①口
口②②口

口⑨⑨口
口口口口
⑨⑦⑦⑨ |-⑥-⑦|
⑥⑧⑧⑥ |⑧-⑨-|
41
口口口口 |----|
口口口口 |----|
口口口口 |----|
口口口口 |----|
42
口口口② |①-②-|
⑤口口口 |③-④⑤|
④口①口
口口口③

口⑧口口
口⑦⑥口
口口⑨口 |-⑥-⑦|
口口口口 |⑧-⑨-|
43
②口口口 |①-②-|
口口口⑤ |③-④⑤|
口口口④
③口口①

口口口口
口口口口
⑥口⑧口 |-⑥-⑦|
口⑨⑦⑨ |⑧-⑨-|
44
①口④口 |①-②-|
口②③口 |③④-⑤|
口口口口
⑤口口口

口口口口
口⑩口口
口⑨⑦口 |-⑥⑦-|
口口⑥⑧ |⑧-⑨⑩|
45
口③口① |①--②|
②口口口 |--③-|
⑦口⑤口 |④-⑤-|
口⑥口④ |⑥-⑦-|
46
口⑤②口 |①-②-|
⑨④⑧口 |③-④⑤|
口口⑦① |-⑥-⑦|
口口③⑥ |⑧-⑨-|
47
口②口口 |①-②-|
口口口口 |③-④⑤|
口口口⑤
①③口④

⑥口⑧口
口口⑦口
口口口口 |-⑥-⑦|
⑨口⑨口 |⑧-⑨-|
48
口④口① |①-②-|
口③口口 |③④-⑤|
口⑦②口 |-⑥⑦-|
⑧⑥口⑤ |⑧---|
49
口口③① |①--②|
②⑦口口 |--③-|
④口⑥口 |④-⑤-|
口⑤口口 |⑥-⑦-|
50
口⑦⑥① |①-②-|
⑧口①⑤ |③-④-|
口②口④ |⑤-⑥-|
口口③口 |⑦-⑧-|
51
口口口口 |①-②-|
口口④口 |③-④-|
口①口③
口口②口

口⑤口口
口口口⑧
口⑦口口 |⑤-⑥-|
口口口⑥ |⑦-⑧-|
52
①⑥⑦口 |①-②-|
⑤①口⑧ |③-④-|
④口②口 |⑤-⑥-|
口③口口 |⑦-⑧-|
53
口口口口 |①-②-|
口④口口 |③-④-|
③口①口
口②口口

口口⑤口
⑧口口口
口口⑦口 |⑤-⑥-|
⑥口口口 |⑦-⑧-|
54
口口口① |①-②-|
口②①⑥ |③-④-|
③⑦⑤口 |⑤-⑥-|
口④口⑧ |⑦-⑧-|
55
①口口口 |①-②-|
⑥①②口 |③-④-|
口⑤⑦③ |⑤-⑥-|
⑧口④口 |⑦-⑧-|
56
④口口① |①-②-|
口④①③ |③-④-|
口口口口
口②口口

口口口⑦
⑥口⑦口
口口口口 |⑤-⑥-|
口⑧⑤口 |⑦-⑧-|
57
②口口口 |①-②-|
④②口① |③-④-|
口口口口
口口③口

口口口口
口⑧⑧⑦
口⑤⑥口 |⑤-⑥-|
口口口口 |⑦-⑧-|
58
口口口口 |①---|
口口口口 |----|
口口口口 |----|
①口口① |----|
59
口口口口 |----|
口口口口 |----|
口口口口
口口口口
60
口⑥口⑧ |①-②-|
⑤口⑦口 |③-④-|
④口②口 |⑤-⑥-|
口③口① |⑦-⑧-|
61
⑧口⑥口 |①-②-|
口⑦口⑤ |③-④-|
口②口④ |⑤-⑥-|
①口③口 |⑦-⑧-|
62
口口口口 |①---|
②③①口 |--②-|
口口口口 |----|
口②③① |③---|
63
⑤口口口 |①-②-|
口⑥⑦④ |③-④-|
口②③口 |⑤-⑥-|
①口口⑧ |⑦-⑧-|
64
⑧口⑥口 |①-②-|
口⑦口⑤ |③-④-|
口②口④ |⑤-⑥-|
①口③口 |⑦-⑧-|
65
口⑥口⑧ |①-②-|
⑤口⑦口 |③-④-|
④口②口 |⑤-⑥-|
口③口① |⑦-⑧-|
66
口口口口 |①---|
口①③② |--②-|
口口口口 |----|
①③②口 |③---|
67
口口口⑤ |①-②-|
④⑦⑥口 |③-④-|
口③②口 |⑤-⑥-|
⑧口口① |⑦-⑧-|
68
⑥⑤⑧⑥ |①-②-|
口口⑦③ |③-④⑤|
⑨④②⑨ |-⑥-⑦|
口口口① |⑧-⑨-|


不确定度: 0

最終更新:2013年01月12日 23:10