attack in the minor key
Mr.T

ADVANCED

Level: 7
BPM: 164
Notes: 451

1
口口口口 |----|
口口口口 |----|
口口口口 |----|
口口口口 |----|
2
口①⑤口 |①-②-|
口⑥②口 |③-④-|
口③⑦口 |⑤-⑥-|
口⑧④口 |⑦-⑧-|
3
①口口⑤ |①-②-|
⑥口口② |③-④-|
③口口⑦ |⑤-⑥-|
⑧口口④ |⑦-⑧-|
4
口②②口 |①---|
口口口口 |②---|
口①①口
口口口口

口口口口
口③③口
口④④口 |③---|
口口口口 |④---|
5
口口口口 |①---|
口口口口 |----|
②口口② |②---|
口①①口 |----|
6
口口口口 |----|
口口口口 |----|
口口口口 |----|
口口口口 |----|
7
④④②② |①---|
口口口口 |②---|
口口口口 |③---|
口①③口 |④---|
8
口口口口 |①---|
④④②② |②---|
口口口口 |③---|
①口口③ |④---|
9
④口口② |①---|
④口口② |②---|
口①③口 |③---|
口口口口 |④---|
10
口④②口 |①---|
口④②口 |②---|
①口口③ |③---|
口口口口 |④---|
11
口口口③ |①-②-|
⑥⑧⑤③ |③-④-|
②④①⑦ |⑤-⑥-|
口口口⑦ |⑦-⑧-|
12
②④①③ |①-②-|
口口口③ |③-④-|
⑥⑧⑤⑦ |⑤-⑥-|
口口口⑦ |⑦-⑧-|
13
②口③① |①-②-|
④口③⑤ |③-④-|
⑥⑧⑦口 |⑤-⑥-|
口口⑦口 |⑦-⑧-|
14
①①③③ |--①-|
口口②② |②---|
④④口口 |③--④|
口口⑤口 |--⑤-|
15
口④口口 |①--②|
①口口口 |--③-|
口⑥③口 |④--⑤|
口②⑤口 |--⑥-|
16
口口①口 |①---|
口④口⑤ |--②③|
口⑥③口 |④--⑤|
口②口口 |--⑥-|
17
口口口① |①---|
口口④口 |--②③|
口口口口 |④---|
口③②口 |----|
18
⑤口口口 |----|
口③口④ |--①②|
口口口口 |③--④|
口①②口 |--⑤-|
19
口口口① |①--②|
口口④口 |--③-|
⑤②口口 |④--⑤|
口口③⑥ |--⑥-|
20
口口口口 |①---|
口口②口 |--②③|
口③⑤口 |④--⑤|
①⑥④口 |--⑥-|
21
口口④口 |①---|
口口②口 |--②③|
口③口口 |④---|
口口口① |----|
22
口口口口 |----|
口口口口 |----|
口口口口 |----|
口口①口 |--①-|
23
口④口口 |①--②|
①口口口 |--③-|
口⑥③口 |④--⑤|
口②⑤口 |--⑥-|
24
⑥口①口 |①---|
口④口⑤ |--②③|
口口③口 |④--⑤|
口②口口 |--⑥-|
25
口⑤①口 |①--②|
②口⑥口 |--③-|
口口口口 |④--⑤|
口④③口 |--⑥-|
26
口口⑤口 |①---|
口④口口 |----|
口口③口 |②-③-|
①②口口 |④-⑤-|
27
①口口口 |①--②|
口口④口 |--③-|
⑤②口口 |④--⑤|
口口③⑥ |--⑥-|
28
口口口口 |①--②|
①口③② |--③-|
口④口口 |④--⑤|
口⑥⑤口 |--⑥-|
29
口口口口 |①---|
口口口口 |----|
口口口口 |----|
口口口① |----|
30
口口口口 |----|
②口⑤口 |--①-|
口口口口 |②-③-|
口④③① |④-⑤-|
31
②②口口 |①---|
③③口口 |--②-|
①①④④ |③---|
口口口口 |--④-|
32
口口②② |①---|
口口③③ |--②-|
口口⑤口 |③---|
口④①① |④-⑤-|
33
①②③口 |①--②|
口⑥⑤④ |--③-|
口口口口 |④--⑤|
口口口口 |--⑥-|
34
③口口口 |①---|
口口口④ |--②-|
口①①⑥ |③-④-|
⑤口②口 |⑤-⑥-|
35
口口口口 |①--②|
①②③口 |--③-|
口口口口 |④--⑤|
口⑥⑤④ |--⑥-|
36
①②③口 |①--②|
口口口口 |--③-|
口⑥⑤④ |④--⑤|
口口口口 |--⑥-|
37
口口⑤口 |①---|
②①①口 |--②③|
口⑥口③ |④--⑤|
④口口口 |--⑥-|
38
口口口口 |①---|
口口①④ |--②③|
口口②口 |④---|
口③口口 |----|
39
③口口③ |-①--|
口②①口 |②--③|
口①②口 |--④-|
④⑤口④ |--⑤-|
40
⑥口①⑤ |①---|
④口口口 |--②-|
口口口③ |③-④-|
②口口口 |⑤-⑥-|
41
口②①口 |①--②|
口口③口 |--③④|
口④口口 |⑤---|
⑥口⑤口 |--⑥-|
42
口口①口 |①---|
口④⑤⑦ |--②③|
⑥口③口 |④-⑤-|
口②口口 |⑥-⑦-|
43
口口口口 |①--②|
口③口口 |--③④|
口①④⑦ |⑤---|
⑥⑤②口 |--⑥⑦|
44
⑤③口口 |①---|
①口④口 |②---|
口口口⑥ |③-④-|
口②②口 |⑤-⑥-|
45
口口口口 |①--②|
③⑥口口 |--③-|
口①⑤口 |④---|
口口②④ |--⑤⑥|
46
口④①⑦ |①---|
⑥口③口 |--②③|
口②口⑤ |④-⑤-|
口口口口 |⑥-⑦-|
47
①口②口 |①--②|
口口口口 |--③-|
口③口口 |④---|
口⑤④口 |--⑤-|
48
⑥口①⑤ |①---|
④口口口 |--②-|
口口口③ |③-④-|
②口口口 |⑤-⑥-|
49
口②①口 |①--②|
口口③口 |--③④|
口④口口 |⑤---|
⑥口⑤口 |--⑥-|
50
口口①口 |①---|
口口口口 |--②③|
口口③口
口②口口

⑥口⑦口
口④⑤口
口口口口 |④-⑤-|
口口口口 |⑥-⑦-|
51
口①口口 |①--②|
口口口口 |③---|
口③②口 |----|
④口口④ |④---|
52
口⑤①口 |①-②-|
口②⑥口 |③-④-|
口⑦③口 |⑤-⑥-|
口④⑧口 |⑦-⑧-|
53
口⑤⑦口 |①-②-|
③口口④ |③-④-|
⑥口②口 |⑤---|
①口口口 |⑥-⑦-|
54
②③口② |①---|
口①④口 |②---|
口⑤口口 |③-④-|
口口⑥口 |⑤-⑥-|
55
口口口口 |①---|
口②口口 |--②③|
①口③口 |④---|
口④口口 |----|
56
口口口口 |①-②-|
口口口口 |③-④-|
⑦⑧⑥⑤ |⑤-⑥-|
③④②① |⑦-⑧-|
57
口口口口 |①---|
口①①口 |----|
口②②口 |----|
口口口口 |--②-|
58
②口口② |①---|
③口口③ |----|
④口口④ |②--③|
口①①口 |--④-|
59
口口口④ |①---|
口②②口 |--②-|
口③③口 |③---|
①口口① |④---|
60
⑥口口口 |①---|
口④口⑤ |--②③|
①口口① |④--⑤|
口②③口 |--⑥-|
61
口口口① |①--②|
口口④口 |--③-|
⑤②口口 |④--⑤|
口口③⑥ |--⑥-|
62
口口口口 |①---|
口口②口 |--②③|
口③⑤口 |④--⑤|
①⑥④口 |--⑥-|
63
口口④口 |①---|
口口②口 |--②③|
口③口口 |④---|
口口口① |----|
64
②口口② |①---|
口口口口 |----|
①口口① |②---|
口口③口 |--③-|
65
口④口口 |①--②|
①口口口 |--③-|
口⑥③口 |④--⑤|
口②⑤口 |--⑥-|
66
⑥口①口 |①---|
口④口⑤ |--②③|
口口③口 |④--⑤|
口②口口 |--⑥-|
67
口⑤①口 |①--②|
②口⑥口 |--③-|
口口口口 |④--⑤|
口④③口 |--⑥-|
68
口口⑤口 |①---|
口④口口 |----|
口口③口 |②-③-|
①②口口 |④-⑤-|
69
①口口口 |①--②|
口口④口 |--③-|
⑤②口口 |④--⑤|
口口③⑥ |--⑥-|
70
口口口口 |①--②|
①口③② |--③-|
口④口口 |④--⑤|
口⑥⑤口 |--⑥-|
71
口口口口 |①---|
口口口口 |----|
口口口口 |----|
口口口① |----|
72
口口口口 |----|
口③④口 |----|
口口口口 |①-②-|
口①②口 |③-④-|
73
①④④① |①--②|
口口口口 |--③-|
②⑤⑤② |④--⑤|
③⑥⑥③ |--⑥-|
74
①口③① |①---|
②口口⑦ |②-③④|
④⑥口⑦ |⑤--⑥|
口⑥口⑤ |--⑦-|
75
①①口口 |①---|
口口口口 |----|
口口口口 |----|
口口口口 |----|


不确定度: 0

最終更新:2013年01月12日 23:08